<?xml version="1.0" standalone="no"?>
<!DOCTYPE svg PUBLIC "-//W3C//DTD SVG 1.1//EN" "http://www.w3.org/Graphics/SVG/1.1/DTD/svg11.dtd" >
<svg xmlns="http://www.w3.org/2000/svg">
<metadata></metadata>
<defs>
<font id="iconregular" horiz-adv-x="2457" >
<font-face units-per-em="2048" ascent="1638" descent="-410" />
<missing-glyph horiz-adv-x="500" />
<glyph unicode="+" d="M307 1082.5v43.5v205q0 77 13.5 90t89.5 13h614v614v43.5t4.5 28t7.5 18.5t18.5 7.5t28 4.5h43.5h205h43.5t28 -4.5t19 -8t8 -18.5t4.5 -27.5v-43.5v-614h614h43.5t27.5 -4.5t18.5 -8t8 -19t4.5 -28v-43.5v-205v-43.5t-4.5 -28t-7.5 -18.5t-18.5 -7.5t-28 -4.5h-43.5 h-614v-614q0 -76 -13 -89.5t-90 -13.5h-205h-43.5t-27.5 4.5t-18.5 8t-8 19t-4.5 28v43.5v614h-614h-43.5t-28 4.5t-19 8t-8 18.5t-4.5 27.5z" />
<glyph unicode="-" />
<glyph unicode="@" d="M0 1284q5 313 116.5 579.5t305.5 454t470.5 293t601.5 105.5q113 3 240 -14q724 -87 723 -732v-1344h-361v178q-111 -113 -261.5 -176t-324.5 -62q-313 -1 -499.5 190t-186.5 497q0 121 31 229.5t96 205.5t167 168.5t243 118t324 53.5t411 -24q-5 157 -90.5 227 t-277.5 95q-118 14 -236 14q-236 -1 -437.5 -82t-344 -223.5t-223.5 -345t-81 -438.5q0 -154 35 -296t100 -263t161 -220.5t215.5 -169.5t267.5 -108.5t312 -38.5q458 2 960 270v-404q-507 -280 -991 -280q-209 0 -403.5 54t-357 151.5t-296 238.5t-225 310.5t-140 371 t-44.5 417.5zM1192 1265q0 -158 95 -240.5t273 -82.5q198 0 342 95.5t194 241.5v394q-168 30 -307 31.5t-236 -23t-168.5 -65.5t-112.5 -99t-60.5 -120t-19.5 -132z" />
<glyph unicode="&#xa7;" d="M0 58.5v43.5v983q61 0 102 41t41 103q0 61 -40.5 102t-102.5 41v983v43.5t4.5 28t8 19t18.5 8t27.5 4.5h43.5h2253q77 0 90 -13t13 -90v-983q-62 0 -103 -41t-41 -102t41 -102.5t103 -41.5v-983v-43.5t-4.5 -27.5t-8 -18.5t-19 -8t-28 -4.5h-43.5h-2253h-43.5t-28 4.5 t-18.5 7.5t-7.5 18.5t-4.5 28zM471 1229q0 -62 41 -103t102 -41q62 0 103 41.5t41 102.5t-41 102t-103 41t-102.5 -41t-40.5 -102zM1085 1229q0 -61 41.5 -102.5t102.5 -41.5t102 41t41 103q0 61 -41 102t-102 41q-62 0 -103 -41t-41 -102zM1700 1229q0 -62 41 -103t102 -41 t102.5 41.5t41.5 102.5t-41 102t-103 41q-61 0 -102 -41t-41 -102z" />
<glyph unicode="&#xa9;" d="M-102 1229q0 181 48 353.5t133.5 318.5t208.5 269t269 208.5t318.5 133.5t353.5 48t353.5 -48t318.5 -133.5t269 -208.5t208.5 -269t133.5 -318.5t48 -353.5t-48 -353.5t-133.5 -318.5t-208.5 -269t-269 -208.5t-318.5 -133.5t-353.5 -48t-353.5 48t-318.5 133.5 t-269 208.5t-208.5 269t-133.5 318.5t-48 353.5zM205 1229q0 -209 81 -398.5t218 -326.5t326.5 -218t398.5 -81t398.5 81t326.5 218t218 326.5t81 398.5t-81 398.5t-218 326.5t-326.5 218t-398.5 81t-398.5 -81t-326.5 -218t-218 -326.5t-81 -398.5zM573 1229 q0 136 51 257.5t138.5 208.5t209 138t257.5 51q191 0 343 -87t271 -281l-307 -144q-123 184 -307 184q-138 0 -233 -94.5t-95 -232.5t95 -233t233 -95q99 0 174 41t133 143l307 -143q-119 -194 -271 -281.5t-343 -87.5q-182 0 -332.5 86.5t-237 237t-86.5 332.5z" />
<glyph unicode="&#xae;" d="M-102 1229q0 181 48 353.5t133.5 318.5t208.5 269t269 208.5t318.5 133.5t353.5 48t353.5 -48t318.5 -133.5t269 -208.5t208.5 -269t133.5 -318.5t48 -353.5t-48 -353.5t-133.5 -318.5t-208.5 -269t-269 -208.5t-318.5 -133.5t-353.5 -48t-353.5 48t-318.5 133.5 t-269 208.5t-208.5 269t-133.5 318.5t-48 353.5zM205 1229q0 -209 81 -398.5t218 -326.5t326.5 -218t398.5 -81t398.5 81t326.5 218t218 326.5t81 398.5t-81 398.5t-218 326.5t-326.5 218t-398.5 81t-398.5 -81t-326.5 -218t-218 -326.5t-81 -398.5zM819 614v1229h492 q111 0 199 -34.5t141.5 -93t81.5 -130.5t28 -151q0 -105 -49 -193t-144 -139l234 -488h-348l-184 415l-15 -5h-129v-410h-307zM1126 1331h205q18 0 29.5 1t31 6t31.5 15.5t21.5 31t9.5 49.5q0 36 -13 62t-33.5 38t-39.5 17t-37 5h-205v-225z" />
<glyph unicode="&#x2022;" d="M614 1229q0 125 49 238.5t131 196t196 131t239 48.5t238.5 -48.5t196 -131t131 -196t48.5 -238.5t-48.5 -239t-131 -196t-196 -131t-238.5 -49q-167 0 -308.5 82.5t-224 224t-82.5 308.5z" />
<glyph unicode="&#x20ac;" d="M0 819v307h187q-3 50 -3 103t3 102h-187v307h228q42 180 123 326t184.5 244t230 165t257 96.5t267.5 29.5q203 0 377.5 -65.5t299 -180.5t204 -273t102.5 -342h-430q-45 195 -196.5 302.5t-356.5 107.5q-63 0 -121.5 -8.5t-128.5 -35.5t-128 -70t-111.5 -119t-87.5 -177 h721v-307h-776q-3 -50 -3 -102q0 -53 3 -103h776v-307h-721q34 -101 87.5 -176.5t111.5 -119t128 -70t128.5 -35t121.5 -8.5q206 0 357 107.5t196 301.5h430q-23 -184 -102.5 -341.5t-204 -273t-299 -180.5t-377.5 -65q-137 0 -267.5 29.5t-257 96t-230 164.5t-184.5 244 t-123 326h-228z" />
<glyph unicode="&#x2212;" d="M307 1082.5v43.5v205q0 77 13.5 90t89.5 13h1638h43.5t27.5 -4.5t18.5 -8t8 -19t4.5 -28v-43.5v-205v-43.5t-4.5 -28t-7.5 -18.5t-18.5 -7.5t-28 -4.5h-43.5h-1638h-43.5t-28 4.5t-19 8t-8 18.5t-4.5 27.5z" />
<glyph unicode="&#x231b;" d="M410 0v358q0 134 52 247.5t163 256.5q91 116 117 161q61 103 61 206q0 50 -11.5 95t-39 92t-47.5 75t-62 81q-12 15 -18 23q-111 143 -163 256.5t-52 247.5v359h1638v-359q0 -134 -52 -247.5t-163 -256.5q-90 -115 -115 -157q-63 -104 -63 -209q0 -66 25.5 -131 t54.5 -107t81 -108q11 -14 17 -21q111 -143 163 -256.5t52 -247.5v-358h-1638zM614 266q37 41 97.5 81t117.5 69t118 69.5t106.5 82.5t74.5 107t29 144v535q0 92 -29 179t-70 149.5t-82 116t-70 98.5t-29 77h704q0 -32 -28.5 -77t-70 -98t-82.5 -115t-70 -149t-30 -179v-537 q0 -79 29 -144t74.5 -107t106.5 -82.5t118 -69.5t117.5 -69t97.5 -81v92q0 49 -11.5 92.5t-40.5 92t-54.5 83t-77.5 99.5q-35 45 -46 59.5t-43 58.5t-44.5 67.5t-34.5 67.5t-31.5 78.5t-17.5 80.5t-8 92t8 92t17.5 80.5t31.5 78.5t34.5 67.5t44.5 67.5t43 58.5t46 59.5 q53 66 77.5 99.5t54 82.5t41 92t11.5 92v154h-1227v-154q0 -91 41.5 -166t141.5 -200q100 -129 137 -192q88 -152 88 -312q0 -46 -8 -92t-17.5 -80.5t-31.5 -78.5t-34.5 -67.5t-44.5 -67.5t-43 -58.5t-46 -59.5q-53 -66 -77.5 -99.5t-54.5 -83t-41.5 -92.5t-11.5 -92v-92z " />
<glyph unicode="&#x25fc;" horiz-adv-x="1024" d="M0 0z" />
<glyph unicode="&#x2601;" d="M0 1126q0 156 85.5 284t224.5 187q15 181 113.5 331.5t257.5 237.5t343 87q218 0 396 -119t262 -312q76 21 161 21q125 0 239 -48.5t196 -131t131 -196t49 -238.5q0 -167 -82.5 -308.5t-224 -224t-308.5 -82.5h-1331q-212 0 -362 150t-150 362zM256 1126q0 -106 75 -181 t181 -75h1331q149 0 254 105t105 254q0 148 -105 253t-254 105q-76 0 -120.5 -10.5t-237.5 -70.5q7 133 -54 246.5t-169.5 179t-237.5 65.5q-90 0 -173 -34t-143.5 -92.5t-100 -137.5t-43.5 -169.5t27 -187.5q-134 31 -234.5 -47t-100.5 -203z" />
<glyph unicode="&#x2607;" d="M410 1024l1024 1434v-1024h614l-1024 -1434v1024h-614z" />
<glyph unicode="&#x2665;" d="M0 1591q0 131 49 253t131 211.5t195.5 143.5t236.5 54q179 0 338.5 -96t278.5 -279q119 183 278 279t338 96q124 0 238 -53.5t196 -143.5t130.5 -212t48.5 -253q0 -112 -27.5 -212.5t-58.5 -170t-120.5 -175.5t-144.5 -163t-200 -198q-88 -86 -135 -133l-543 -539 l-543 539q-47 47 -135 133q-115 112 -168 166t-132 141t-113 143.5t-72.5 136t-52 159t-13.5 173.5z" />
<glyph unicode="&#x2690;" d="M205 58.5v43.5v1024v1229v43.5t4.5 28t8 19t18.5 8t27.5 4.5h43.5h2151l-410 -717l410 -717h-2048v-922v-43.5t-4.5 -27.5t-8 -18.5t-19 -8t-28 -4.5h-43.5h-43.5t-28 4.5t-18.5 7.5t-7.5 18.5t-4.5 28zM410 1229h1689l-307 512l307 512h-1689v-1024z" />
<glyph unicode="&#x2691;" d="M205 58.5v43.5v2253v43.5t4.5 28t8 19t18.5 8t27.5 4.5h43.5h2151l-410 -717l410 -717h-2048v-922v-43.5t-4.5 -27.5t-8 -18.5t-19 -8t-28 -4.5h-43.5h-43.5t-28 4.5t-18.5 7.5t-7.5 18.5t-4.5 28z" />
<glyph unicode="&#x2694;" d="M17 144.5q0 4.5 8 19t16.5 22.5t31.5 31l217 217l-73 73q-22 22 -31 30.5t-16.5 22.5t-7.5 19t7.5 19t16.5 23l31 31l31 31t23 16.5t19 7.5t19 -7.5t22.5 -16.5t30.5 -31l73 -73l649 650l-786 786l-31 31t-17 23t-8 19t8 19t17 22.5t31 30.5q22 23 30.5 31.5t22.5 16.5 t18.5 8t19 -8t22.5 -16.5t31 -31.5l787 -787l786 787l31 31t23 17t19 8t19 -8t22.5 -17t30.5 -31t31 -30.5t17 -22.5t8 -19t-8 -19t-17 -23l-31 -31l-787 -786l650 -650l73 73q22 22 30.5 31t22.5 16.5t19 7.5t19 -7.5t23 -16.5l31 -31l31 -31t16.5 -23t7.5 -19t-7.5 -19 t-16.5 -22.5t-31 -30.5l-73 -73l217 -217q23 -23 31.5 -31t16.5 -22.5t8 -19t-8 -18.5t-16.5 -22.5t-31.5 -30.5q-22 -23 -30.5 -31.5t-22.5 -16.5t-18.5 -8t-19 8t-22.5 16.5t-31 31.5l-218 217l-72 -73q-22 -22 -30.5 -31t-22.5 -16.5t-19 -7.5t-19 7.5t-23 16.5l-31 31 l-31 31t-16.5 23t-7.5 19t7.5 19t16.5 22.5t31 30.5l73 73l-650 649l-650 -649l73 -73q22 -22 31 -30.5t16.5 -22.5t7.5 -19t-7.5 -19t-16.5 -23l-31 -31l-31 -31t-23 -16.5t-19 -7.5t-19 7.5t-22.5 16.5t-30.5 31l-73 73l-217 -217q-23 -23 -31 -31.5t-22.5 -16.5t-19 -8 t-18.5 8t-22.5 16.5t-30.5 31.5q-23 22 -31.5 30.5t-16.5 22.5t-8 18.5z" />
<glyph unicode="&#x2702;" />
<glyph unicode="&#x2708;" d="M0 768v205l1024 563v717q0 76 64 172.5t141 134.5q77 -38 141 -134.5t64 -172.5v-717l1024 -563v-205l-1024 205v-768l153 -154v-205l-358 154l-359 -154v205l154 154v768z" />
<glyph unicode="&#x2709;" d="M0 205v1536l1229 -1024l1229 1024v-1536h-2458zM0 2048h2458l-1229 -1024z" />
<glyph unicode="&#x270f;" d="M0 11l190 528q80 -66 175.5 -161.5t159.5 -174.5zM333 869l1602 1577q186 -62 323 -199.5t200 -322.5l-1600 -1578q-99 149 -236.5 286t-288.5 237z" />
<glyph unicode="&#x2747;" d="M898 1228.5q0 14.5 10.5 20t47 22t68 26.5t102.5 34q24 71 34 102.5t26.5 68t22 47t20 10.5t20 -10.5t22 -47t26.5 -68t34 -102.5q71 -24 102.5 -34t68 -26.5t47 -22t10.5 -20t-10.5 -20t-47 -22t-68 -26.5t-102.5 -34q-24 -71 -34 -102.5t-26.5 -68t-22 -47t-20 -10.5 t-20 10.5t-22 47t-26.5 68t-34 102.5q-71 24 -102.5 34t-68 26.5t-47 22t-10.5 20z" />
<glyph unicode="&#xe000;" d="M205 1331q0 189 72.5 359.5t195.5 294t293.5 196t359.5 72.5t359.5 -72.5t294 -196t196 -294t72.5 -359.5q0 -280 -154 -512l564 -563l-256 -256l-564 563q-230 -153 -512 -153q-189 0 -359.5 72.5t-293.5 195.5t-195.5 293.5t-72.5 359.5zM512 1331q0 -177 78.5 -317 t218.5 -218.5t317 -78.5t317.5 78.5t219 218.5t78.5 317q0 132 -46 246.5t-127 195.5t-195.5 127t-246.5 46q-177 0 -317 -78.5t-218.5 -219t-78.5 -317.5z" />
<glyph unicode="&#xe001;" horiz-adv-x="1228" />
<glyph unicode="&#xe002;" d="M-683 859q0 138 75.5 250t197.5 164v-828q-122 52 -197.5 164t-75.5 250zM-205 410v898q61 -4 107 -20t98 -48v-830h-205zM205 410v1171q89 76 205 117v-1288h-205zM614 410v1326q104 4 205 -26v-1300h-205zM1024 410v1283q113 164 291 259.5t384 95.5q156 0 299 -57 t250.5 -154.5t178 -233.5t86.5 -288q81 29 161 29q127 0 234.5 -62.5t170 -170t62.5 -234.5t-62.5 -234.5t-170 -170t-234.5 -62.5h-1650z" />
<glyph unicode="&#xe003;" d="M0 58.5v43.5v2253v43.5t4.5 28t8 19t18.5 8t27.5 4.5h43.5h2253q77 0 90 -13t13 -90v-2253v-43.5t-4.5 -27.5t-8 -18.5t-19 -8t-28 -4.5h-43.5h-2253h-43.5t-28 4.5t-18.5 7.5t-7.5 18.5t-4.5 28zM266 1044q0 -69 40.5 -126.5t103.5 -82.5v419q-63 -25 -103.5 -83 t-40.5 -127zM512 819h102v410q-68 34 -102 39v-449zM717 819h102v638q-54 -20 -102 -63v-575zM922 819h102v644q-50 12 -102 12v-656zM1126 819h820q106 0 175.5 65.5t69.5 159.5q0 107 -69 176.5t-176 69.5q-41 0 -82 -20q-15 157 -129.5 262.5t-280.5 105.5 q-97 0 -181 -46.5t-147 -129.5v-643z" />
<glyph unicode="&#xe004;" d="M0 263.5v43.5v43.5t4.5 28t8 19t18.5 8t27.5 4.5h43.5h103v1740v43.5t4.5 28t8 19t18.5 8t27.5 4.5h43.5h615h43.5t27.5 -4.5t18.5 -8t8 -19t4.5 -28v-43.5v-1740h205v1126v43.5t4.5 28t7.5 18.5t18.5 7.5t28 4.5h43.5h615h43.5t28 -4.5t18.5 -7.5t7.5 -18.5t4.5 -28 v-43.5v-1126h102q76 0 89.5 -13t13.5 -90v-43.5t-4.5 -27.5t-8 -18.5t-19 -8t-28 -4.5h-43.5h-204h-616h-408h-616h-204h-43.5t-28 4.5t-18.5 7.5t-7.5 18.5t-4.5 28z" />
<glyph unicode="&#xe005;" d="M307 263.5v43.5v615v43.5t4.5 27.5t8 18.5t19 8t28 4.5h43.5h716v205h-409h-43.5t-28 4.5t-19 8t-8 18.5t-4.5 27.5v43.5v615v43.5t4.5 27.5t8 18.5t19 8t28 4.5h43.5h409v102q0 76 13 89.5t90 13.5h43.5t27.5 -4.5t18.5 -8t8 -19t4.5 -28v-43.5v-102h410h43.5t28 -4.5 t18.5 -7.5t7.5 -18.5t4.5 -28v-43.5v-615q0 -77 -12.5 -89.5t-89.5 -12.5h-410v-205h717h43.5t28 -4.5t18.5 -7.5t7.5 -18.5t4.5 -28v-43.5v-615v-43.5t-4.5 -28t-7.5 -18.5t-18.5 -7.5t-28 -4.5h-43.5h-717v-103v-43.5t-4.5 -28t-7.5 -18.5t-18.5 -7.5t-28 -4.5h-43.5 h-43.5t-28 4.5t-19 8t-8 18.5t-4.5 27.5v43.5v103h-716h-43.5t-28 4.5t-19 8t-8 18.5t-4.5 27.5z" />
<glyph unicode="&#xe006;" d="M0 1185.5v43.5v43.5t4.5 28t7.5 18.5t18.5 7.5t28 4.5h43.5h103v717v43.5t4.5 28t7.5 18.5t18.5 7.5t28 4.5h43.5h615h43.5t28 -4.5t18.5 -7.5t7.5 -18.5t4.5 -28v-43.5v-717h205v410q0 77 12.5 89.5t89.5 12.5h615h43.5t28 -4.5t18.5 -7.5t7.5 -18.5t4.5 -28v-43.5v-410 h102h43.5t28 -4.5t19 -8t8 -18.5t4.5 -27.5v-43.5q0 -77 -13.5 -90t-89.5 -13h-102v-409v-43.5t-4.5 -28t-8 -19t-18.5 -8t-27.5 -4.5h-43.5h-615h-43.5t-27.5 4.5t-18.5 8t-8 19t-4.5 28v43.5v409h-205v-716v-43.5t-4.5 -28t-8 -19t-18.5 -8t-27.5 -4.5h-43.5h-615h-43.5 t-27.5 4.5t-18.5 8t-8 19t-4.5 28v43.5v716h-103h-43.5t-27.5 4.5t-18.5 8t-8 19t-4.5 28z" />
<glyph unicode="&#xe007;" d="M205 58.5v43.5v2048v43.5t4.5 28t8 19t18.5 8t27.5 4.5h43.5q77 0 90 -13.5t13 -89.5v-102h1126h43.5t28 -4.5t18.5 -7.5t7.5 -18.5t4.5 -28v-43.5v-615v-43.5t-4.5 -28t-7.5 -18.5t-18.5 -7.5t-28 -4.5h-43.5h-1126v-205h1740h43.5t28 -4.5t19 -8t8 -18.5t4.5 -27.5 v-43.5v-615v-43.5t-4.5 -27.5t-8 -18.5t-19 -8t-28 -4.5h-43.5h-1740v-103v-43.5t-4.5 -27.5t-8 -18.5t-19 -8t-28 -4.5h-43.5h-43.5t-28 4.5t-18.5 7.5t-7.5 18.5t-4.5 28z" />
<glyph unicode="&#xe008;" d="M205 307v615v43.5t4.5 28t7.5 18.5t18.5 7.5t28 4.5h43.5h1741v205h-1126h-43.5t-28 4.5t-19 8t-8 18.5t-4.5 27.5v43.5v615v43.5t4.5 27.5t8 18.5t19 8t28 4.5h43.5h1126v102v43.5t4.5 28t8 19t18.5 8t27.5 4.5h43.5h44t28 -4.5t18.5 -8t8 -18.5t4.5 -28v-44v-2048 v-43.5t-4.5 -27.5t-8 -18.5t-19 -8t-28 -4.5h-43.5h-43.5t-28 4.5t-18.5 7.5t-7.5 18.5t-4.5 28v43.5v103h-1741q-77 0 -89.5 12.5t-12.5 89.5z" />
<glyph unicode="&#xe009;" d="M0 58.5v43.5v2253v43.5t4.5 28t8 19t18.5 8t27.5 4.5h43.5h2253q77 0 90 -13t13 -90v-2253v-43.5t-4.5 -27.5t-8 -18.5t-19 -8t-28 -4.5h-43.5h-2253h-43.5t-28 4.5t-18.5 7.5t-7.5 18.5t-4.5 28zM205 1229l409 -256v512zM973 614l256 -409l256 409h-512zM973 1843h512 l-256 410zM1843 973l410 256l-410 256v-512z" />
<glyph unicode="&#xe00a;" d="M0 2106.5v43.5v43.5t4.5 28t8 19t18.5 8t27.5 4.5h43.5h2048h44t28 -4.5t18.5 -8t8 -18.5t4.5 -28v-44v-43.5t-4.5 -27.5t-8 -18.5t-19 -8t-28 -4.5h-43.5h-102v-1126v-43.5t-4.5 -28t-8 -19t-18.5 -8t-27.5 -4.5h-43.5h-615h-43.5t-27.5 4.5t-18.5 8t-8 19t-4.5 28v43.5 v1126h-205v-1741v-43.5t-4.5 -28t-7.5 -18.5t-18.5 -7.5t-28 -4.5h-43.5h-615q-77 0 -89.5 12.5t-12.5 89.5v1741h-103h-43.5t-28 4.5t-18.5 7.5t-7.5 18.5t-4.5 28z" />
<glyph unicode="&#xe00b;" d="M0 58.5v43.5v2253v43.5t4.5 28t8 19t18.5 8t27.5 4.5h43.5h871v-1434h-359l512 -614l512 614h-358v1434h870q76 0 89.5 -13t13.5 -90v-2253v-43.5t-4.5 -27.5t-8 -18.5t-19 -8t-28 -4.5h-43.5h-2048h-43.5t-28 4.5t-18.5 7.5t-7.5 18.5t-4.5 28z" />
<glyph unicode="&#xe00c;" d="M0 58.5v43.5v2253v43.5t4.5 28t8 19t18.5 8t27.5 4.5h43.5h871v-512h-359l512 -615l512 615h-358v512h870q76 0 89.5 -13t13.5 -90v-2253v-43.5t-4.5 -27.5t-8 -18.5t-19 -8t-28 -4.5h-43.5h-870v512h358l-512 614l-512 -614h359v-512h-871h-43.5t-28 4.5t-18.5 7.5 t-7.5 18.5t-4.5 28z" />
<glyph unicode="&#xe00d;" d="M0 58.5v43.5v2253v43.5t4.5 28t8 19t18.5 8t27.5 4.5h43.5h2048q76 0 89.5 -13t13.5 -90v-2253v-43.5t-4.5 -27.5t-8 -18.5t-19 -8t-28 -4.5h-43.5h-870v1434h358l-512 614l-512 -614h359v-1434h-871h-43.5t-28 4.5t-18.5 7.5t-7.5 18.5t-4.5 28z" />
<glyph unicode="&#xe00e;" d="M-32 1219q-3 245 92 488.5t281 429.5q179 178 414.5 270.5t473.5 92.5t473.5 -92.5t414.5 -270.5q186 -186 281 -429.5t91.5 -488.5t-106.5 -483.5t-297 -414.5l-200 206q153 137 235 321t85.5 373t-70.5 377.5t-221 335.5q-141 140 -322 212.5t-364 72.5t-364 -72.5 t-321 -211.5q-147 -147 -221.5 -336t-71 -378t85.5 -373t235 -321l-200 -206q-194 176 -297.5 414.5t-106.5 483.5zM527.5 1242q-0.5 134 51 266t150.5 231q98 98 231.5 149t268.5 51.5t268 -51t231 -149.5q99 -99 150.5 -230.5t51 -265.5t-52.5 -266t-151 -231l-214 191 q86 81 118.5 190t5 218t-109.5 191q-120 120 -297 120t-297 -120q-82 -82 -109.5 -191.5t4.5 -218.5t118 -189l-214 -191q-99 99 -151 230.5t-52.5 265.5zM1085 -41v1256q0 47 21.5 82t53 50.5t69 15.5t69 -15.5t53 -50.5t21.5 -82v-1256h-287z" />
<glyph unicode="&#xe00f;" d="M0 58.5v43.5v1332h2458v-1332v-43.5t-4.5 -27.5t-8 -18.5t-19 -8t-28 -4.5h-43.5h-2253h-43.5t-28 4.5t-18.5 7.5t-7.5 18.5t-4.5 28zM0 1638v512v43.5t4.5 28t8 19t18.5 8t27.5 4.5h43.5h2253q77 0 90 -13.5t13 -89.5v-512h-2458zM205 1843h205v205h-205v-205zM614 1843 h1639v205h-1639v-205z" />
<glyph unicode="&#xe010;" d="M1024 1229l205 256l205 -256h-154v-1178q0 -38 -6.5 -44.5t-44.5 -6.5t-44.5 6.5t-6.5 44.5v1178h-154z" />
<glyph unicode="&#xe011;" d="M922 1229l307 358l307 -358h-205v-1127v-43.5t-4.5 -28t-7.5 -18.5t-18.5 -7.5t-28 -4.5h-43.5h-43.5t-28 4.5t-19 8t-8 18.5t-4.5 27.5v43.5v1127h-204z" />
<glyph unicode="&#xe012;" d="M819 1229l410 461l409 -461h-256v-1127v-43.5t-4.5 -28t-7.5 -18.5t-18.5 -7.5t-28 -4.5h-43.5h-102h-43.5t-28 4.5t-19 8t-8 18.5t-4.5 27.5v43.5v1127h-256z" />
<glyph unicode="&#xe013;" d="M614 1229l615 665l614 -665h-409v-1127v-43.5t-4.5 -27.5t-8 -18.5t-19 -8t-28 -4.5h-43.5h-205h-43.5t-28 4.5t-18.5 7.5t-7.5 18.5t-4.5 28v43.5v1127h-410z" />
<glyph unicode="&#xe014;" d="M410 1229l819 870l819 -870h-512v-1127v-43.5t-4.5 -28t-7.5 -18.5t-18.5 -7.5t-28 -4.5h-43.5h-410h-43.5t-28 4.5t-18.5 7.5t-7.5 18.5t-4.5 28v43.5v1127h-512z" />
<glyph unicode="&#xe015;" d="M665 647.5q0 5.5 7.5 19t16.5 22.5l31 31l31 31t22.5 16.5t19 7.5t19 -7.5t22.5 -16.5l31 -31l262 -262v1693q0 77 12.5 89.5t89.5 12.5t89.5 -12.5t12.5 -89.5v-1688l258 257q23 22 31 30.5t22.5 16.5t19 8t18.5 -8t22.5 -16.5l30.5 -30.5l31 -31t16.5 -22.5t7.5 -19 t-7.5 -19t-16.5 -22.5l-31 -31l-421 -421l-13 -13l-31 -31t-22.5 -16.5t-19 -7.5t-19 7.5t-22.5 16.5l-31 31l-13 13l-421 421l-31 31t-16.5 22.5t-7.5 19z" />
<glyph unicode="&#xe016;" d="M410 1126h512v1024v43.5t4.5 28t8 19t18.5 8t27.5 4.5h43.5h410h43.5t27.5 -4.5t18.5 -8t8 -19t4.5 -28v-43.5v-1024h512l-819 -1024z" />
<glyph unicode="&#xe017;" d="M0 1082.5v43.5v205v43.5t4.5 28t8 19t18.5 8t27.5 4.5h43.5h512q93 0 180 34t159 88t144 119.5t150.5 131t163 119.5t196 88t236.5 34h103v205l512 -410l-512 -409v204h-144q-72 0 -139 -24t-130 -70.5t-115 -92.5t-124.5 -113t-127.5 -110q54 -43 127 -110t125 -113 t115 -92t130 -70t139 -24h144v205l512 -410l-512 -409v205h-103q-125 0 -236.5 34t-196 88t-163 119.5t-150.5 131t-144 119.5t-159 88t-180 34h-512h-43.5t-28 4.5t-18.5 7.5t-7.5 18.5t-4.5 28z" />
<glyph unicode="&#xe018;" d="M-102 1229l716 614v-409h1229v409l717 -614l-717 -615v410h-1229v-410z" />
<glyph unicode="&#xe019;" d="M0 1126l1024 820v-512h1024h43.5t27.5 -4.5t18.5 -8t8 -19t4.5 -28v-43.5v-409v-43.5t-4.5 -28t-8 -19t-18.5 -8t-27.5 -4.5h-43.5h-1024v-512z" />
<glyph unicode="&#xe01a;" d="M0 1024h410v922v43.5t4.5 28t7.5 18.5t18.5 7.5t28 4.5h43.5h1638h43.5t28 -4.5t19 -8t8 -18.5t4.5 -27.5v-43.5v-205q0 -77 -13.5 -90t-89.5 -13h-1331v-614h410l-615 -666z" />
<glyph unicode="&#xe01b;" d="M87 1228.5q0 5.5 7.5 19t16.5 22.5l31 31l13 13l421 421l31 31t22.5 16.5t19 7.5t19 -7.5t22.5 -16.5l31 -31l31 -31t16.5 -22.5t7.5 -19t-7.5 -19t-16.5 -22.5l-31 -31l-262 -261h1692q77 0 90 -13.5t13 -89.5v-43.5t-4.5 -27.5t-8 -18.5t-19 -8t-28 -4.5h-43.5h-1688 l258 -258q22 -22 31 -30.5t16.5 -22.5t7.5 -19t-7.5 -19t-16.5 -22.5t-31 -30.5l-31 -31t-22.5 -16.5t-19 -7.5t-19 7.5t-22.5 16.5l-31 31l-421 421l-13 13l-31 31t-16.5 22.5t-7.5 19z" />
<glyph unicode="&#xe01c;" d="M0 1638l614 666l615 -666h-410v-614h1331h43.5t28 -4.5t19 -8t8 -18.5t4.5 -27.5v-43.5v-205q0 -77 -13.5 -90t-89.5 -13h-1638h-43.5t-27.5 4.5t-18.5 8t-8 19t-4.5 28v43.5v921h-410z" />
<glyph unicode="&#xe01d;" d="M0 410v409h328q79 0 147.5 15.5t131 49t112 70t114.5 93.5q5 4 83.5 75t123.5 107q-45 36 -123.5 107t-83.5 75q-133 116 -244 171.5t-261 55.5h-328v410h328q102 0 200.5 -20.5t175 -51.5t154 -77.5t131.5 -87t113 -92.5q27 -24 77 -68.5t72.5 -63.5t61 -50.5t62 -45 t56.5 -29.5t62.5 -22t62.5 -6h287v307l615 -512l-615 -512v307h-287q-33 0 -62.5 -6t-62.5 -22t-56.5 -29.5t-62 -45t-61 -50.5t-72.5 -63.5t-77 -68.5q-59 -52 -113 -92.5t-131.5 -87t-154 -77.5t-175 -51.5t-200.5 -20.5h-328z" />
<glyph unicode="&#xe01e;" d="M307 878v44v409q0 77 13.5 90t89.5 13h1024v512l1024 -820l-1024 -819v512h-1024h-44t-28 4.5t-18.5 8t-8 18.5t-4.5 28z" />
<glyph unicode="&#xe01f;" d="M205 1697.5v43.5v205v43.5t4.5 28t7.5 18.5t18.5 7.5t28 4.5h43.5h1639h43.5t28 -4.5t18.5 -7.5t7.5 -18.5t4.5 -28v-43.5v-922h410l-615 -666l-614 666h409v614h-1331h-43.5t-27.5 4.5t-18.5 8t-8 19t-4.5 28z" />
<glyph unicode="&#xe020;" d="M204 1182.5v43.5q0 76 13 89.5t90 13.5h1692l-262 261l-31 31t-16.5 22.5t-7.5 19t7.5 19t16.5 22.5l31 31l31 31t22.5 16.5t19 7.5t19 -7.5t22.5 -16.5l31 -31l421 -421l13 -13l31 -31t16.5 -22.5t7.5 -19t-7.5 -19t-16.5 -22.5l-31 -31l-13 -13l-421 -421l-31 -31 t-22.5 -16.5t-19 -7.5t-19 7.5t-22.5 16.5l-31 31t-31 30.5t-16.5 22.5t-7.5 19t7.5 19t16.5 22.5t31 30.5l257 258h-1687h-43.5t-28 4.5t-19 8t-8 18.5t-4.5 27.5z" />
<glyph unicode="&#xe021;" d="M205 673.5v43.5v205v43.5t4.5 28t7.5 18.5t18.5 7.5t28 4.5h43.5h1331v614h-409l614 666l615 -666h-410v-921v-43.5t-4.5 -28t-8 -19t-18.5 -8t-27.5 -4.5h-43.5h-1639h-43.5t-27.5 4.5t-18.5 8t-8 19t-4.5 28z" />
<glyph unicode="&#xe022;" d="M666 819h409v1331v44t4.5 28t8 18.5t18.5 8t28 4.5h44h102h43.5t27.5 -4.5t18.5 -8t8 -19t4.5 -28v-43.5v-1331h410l-563 -665z" />
<glyph unicode="&#xe023;" d="M154 1229l665 563v-410h1331h43.5t28 -4.5t19 -8t8 -18.5t4.5 -27.5v-43.5v-102v-44t-4.5 -28t-8 -18.5t-18.5 -8t-28 -4.5h-44h-1331v-409z" />
<glyph unicode="&#xe024;" d="M205 1134.5v43.5v102v43.5t4.5 28t7.5 18.5t18.5 7.5t28 4.5h43.5h1331v410l666 -563l-666 -563v409h-1331h-43.5t-27.5 4.5t-18.5 8t-8 19t-4.5 28z" />
<glyph unicode="&#xe025;" d="M666 1638l563 666l563 -666h-410v-1331v-43.5t-4.5 -28t-7.5 -18.5t-18.5 -7.5t-28 -4.5h-43.5h-102h-43.5t-28 4.5t-19 8t-8 18.5t-4.5 27.5v43.5v1331h-409z" />
<glyph unicode="&#xe026;" d="M410 1331l819 1024l819 -1024h-512v-1024v-43.5t-4.5 -28t-7.5 -18.5t-18.5 -7.5t-28 -4.5h-43.5h-410h-43.5t-28 4.5t-18.5 7.5t-7.5 18.5t-4.5 28v43.5v1024h-512z" />
<glyph unicode="&#xe027;" d="M666 1810q0 5 8 19t17 23l31 31l435 434q22 22 30.5 31t22.5 16.5t19 7.5t19 -7.5t22.5 -16.5t30.5 -31l435 -434l31 -31t16.5 -22.5t7.5 -19t-7.5 -19t-16.5 -22.5l-31 -31l-31 -31t-22.5 -16.5t-19 -7.5t-19 7.5t-22.5 16.5l-31 31l-262 261v-1692q0 -77 -12.5 -89.5 t-89.5 -12.5h-43.5t-28 4.5t-19 8t-8 18.5t-4.5 27.5v43.5v1688l-257 -257l-31 -31t-22.5 -16.5t-19 -7.5t-19 7.5t-22.5 16.5l-31 31t-31 30.5t-17 22.5t-8 19z" />
<glyph unicode="&#xe028;" d="M614 614h410v1229h-410l615 717l614 -717h-409v-1229h409l-614 -716z" />
<glyph unicode="&#xe029;" d="M-102 614l716 615v-410h1741h43.5t28 -4.5t19 -8t8 -18.5t4.5 -27.5v-43.5v-205v-43.5t-4.5 -27.5t-8 -18.5t-19 -8t-28 -4.5h-43.5h-1741v-410zM0 1697.5v43.5v205v43.5t4.5 28t7.5 18.5t18.5 7.5t28 4.5h43.5h1741v410l717 -615l-717 -614v409h-1741h-43.5t-27.5 4.5 t-18.5 8t-8 19t-4.5 28z" />
<glyph unicode="&#xe02a;" d="M0 1082.5v43.5v205v34t2 24.5t3.5 19t9 12t12.5 8.5t20.5 3t27 2h37.5h400v256l461 -461l-461 -461v256h-400h-47.5t-30.5 4.5t-20.5 7.5t-8.5 18.5t-5 28zM768 512l461 461l461 -461h-256v-400v-37.5t-2 -27t-3 -20.5t-8.5 -12.5t-12 -9t-19 -3.5t-24.5 -2h-34h-205 h-43.5t-28 5t-18.5 8.5t-7.5 20.5t-4.5 30.5v47.5v400h-256zM768 1946h256v399v48t4.5 30.5t8 20.5t18.5 9t27.5 5h43.5h205h44t28 -5t18.5 -9t8 -20.5t4.5 -30.5v-48v-399h256l-461 -461zM1485 1229l461 461v-256h399h48t30.5 -4.5t20.5 -8t9 -18.5t5 -28v-44v-205v-43.5 t-5 -27.5t-9 -18.5t-20.5 -8t-30.5 -4.5h-48h-399v-256z" />
<glyph unicode="&#xe02b;" d="M-25 1229l431 461v-256h307h37.5t27 -2t20.5 -3t12.5 -8.5t9 -12t3.5 -19t2 -24.5v-34v-205v-43.5t-5 -28t-8.5 -18.5t-20.5 -7.5t-30.5 -4.5h-47.5h-307v-256zM768 403h256v304v48.5t4.5 30t7.5 20.5t19 8.5t27.5 4.5h43.5h205h43.5t27.5 -4.5t19 -8.5t8 -20.5t5 -30.5 v-48v-304h256l-461 -434zM768 2056l461 430l461 -430h-256v-307v-37t-2 -27t-3 -20t-8.5 -12.5t-12 -9t-19 -3.5t-24.5 -2h-34h-205h-43.5t-28 5t-18.5 8.5t-7.5 20t-4.5 30v47.5v307h-256zM1634 1082.5v43.5v205v34t2 24.5t3.5 19t9 12t12.5 8.5t20 3t27 2h37h307v256 l430 -461l-430 -461v256h-307h-47.5t-30 4.5t-20 7.5t-8.5 18.5t-5 28z" />
<glyph unicode="&#xe02c;" d="M154 1792l665 563v-409h1331q76 0 89.5 -13t13.5 -90v-102q0 -77 -13.5 -90t-89.5 -13h-1331v-409zM205 570.5v43.5v103q0 77 12.5 89.5t89.5 12.5h1331v410l666 -563l-666 -564v410h-1331h-43.5t-28 4.5t-18.5 7.5t-7.5 18.5t-4.5 28z" />
<glyph unicode="&#xe02d;" d="M102 819h410v1331v43.5t4.5 28t8 19t18.5 8t27.5 4.5h43.5h103h43.5t27.5 -4.5t18.5 -8t8 -19t4.5 -28v-43.5v-1331h410l-563 -665zM1229 1638l563 666l563 -666h-409v-1331v-43.5t-4.5 -27.5t-8 -18.5t-19 -8t-28 -4.5h-43.5h-102h-43.5t-28 4.5t-19 8t-8 18.5 t-4.5 27.5v43.5v1331h-409z" />
<glyph unicode="&#xe02e;" d="M0 614h410v1741v43.5t4.5 28t8 19t18.5 8t27.5 4.5h43.5h205h43.5t27.5 -4.5t18.5 -8t8 -19t4.5 -28v-43.5v-1741h410l-615 -716zM1229 1843l614 717l615 -717h-410v-1741v-43.5t-4.5 -28t-7.5 -18.5t-18.5 -7.5t-28 -4.5h-43.5h-205h-43.5t-28 4.5t-19 8t-8 18.5 t-4.5 27.5v43.5v1741h-409z" />
<glyph unicode="&#xe02f;" d="M0 1229q0 250 97.5 477.5t262 392t392 262t477.5 97.5t477.5 -97.5t392 -262t262 -392t97.5 -477.5t-97.5 -477.5t-262 -392t-392 -262t-477.5 -97.5q-240 0 -457 88t-385 246q-7 3 -30 26t-26 31q-157 168 -244 384t-87 454zM102 1229q0 -212 78 -406.5t218 -348.5 l1586 1585q-154 140 -348.5 218t-406.5 78q-151 0 -296.5 -41t-269 -114t-228 -178t-178 -228t-114.5 -268.5t-41 -296.5zM471 401q154 -142 349 -220.5t409 -78.5q151 0 296.5 41t268.5 114.5t228 178t178 228t114 269t41 296.5q0 214 -78.5 409t-220.5 349z" />
<glyph unicode="&#xe030;" d="M0 1229q0 200 62 388t175.5 339t264.5 264.5t339 175.5t388 62t388 -62t339 -175.5t264.5 -264.5t175.5 -339t62 -388t-62 -388t-175.5 -339t-264.5 -264.5t-339 -175.5t-388 -62q-231 0 -441 81.5t-376 229.5q-14 8 -55 49q-44 44 -50 56q-146 166 -226.5 374.5 t-80.5 438.5zM205 1229q0 -181 59.5 -346.5t169.5 -299.5l1441 1440q-134 110 -299.5 170t-346.5 60q-209 0 -398.5 -81t-326.5 -218t-218 -326.5t-81 -398.5zM579 437q135 -111 301.5 -171.5t348.5 -60.5q209 0 398.5 81t326.5 218t218 326.5t81 398.5q0 182 -61 348 t-172 302z" />
<glyph unicode="&#xe031;" d="M0 1229q0 245 99 472t265 393t393 265t472 99q217 0 418 -76.5t366 -215.5q24 -11 81 -68q55 -55 68 -81q140 -165 218 -367.5t78 -420.5q0 -245 -99 -472t-265 -393t-393 -265t-472 -99q-215 0 -415 75.5t-364 211.5q-28 8 -93 73q-66 66 -74 95q-135 163 -209 361.5 t-74 412.5zM307 1229q0 -295 168 -533l1287 1286q-238 168 -533 168q-189 0 -359.5 -72.5t-294 -195.5t-196 -293.5t-72.5 -359.5zM692 478q239 -171 537 -171q189 0 359.5 72.5t293.5 196t195.5 294t72.5 359.5q0 299 -170 537z" />
<glyph unicode="&#xe032;" d="M0 1229q0 250 97.5 477.5t262 392t392 262t477.5 97.5t477.5 -97.5t392 -262t262 -392t97.5 -477.5t-97.5 -477.5t-262 -392t-392 -262t-477.5 -97.5q-217 0 -415.5 72.5t-360.5 204.5q-32 19 -96 83q-66 66 -85 99q-130 161 -201 358.5t-71 411.5zM410 1229 q0 -222 112 -414l1121 1121q-192 112 -414 112q-166 0 -318 -65t-261.5 -174.5t-174.5 -261.5t-65 -318zM811 524q191 -114 418 -114q166 0 318 65t261.5 174.5t174.5 261.5t65 318q0 226 -115 418z" />
<glyph unicode="&#xe033;" d="M0 1229q0 245 99 472t265 393t393 265t472 99q363 0 670 -206q69 -28 195 -154q124 -124 153 -192q211 -313 211 -677q0 -245 -99 -472t-265 -393t-393 -265t-472 -99q-354 0 -662 201q-73 22 -210 159q-140 140 -160 213q-197 303 -197 656zM614 1229q0 -76 21 -157 l750 751q-77 20 -156 20q-125 0 -239 -48.5t-196 -131t-131 -196t-49 -238.5zM1067 636q82 -22 162 -22q125 0 238.5 49t196 131t131 196t48.5 239q0 84 -21 162z" />
<glyph unicode="&#xe034;" d="M-102 263.5v43.5v1843v43.5t4.5 28t8 19t18.5 8t27.5 4.5h43.5h205h43.5t27.5 -4.5t18.5 -8t8 -19t4.5 -28v-43.5v-1843q0 -77 -12.5 -89.5t-89.5 -12.5h-205h-43.5t-28 4.5t-18.5 7.5t-7.5 18.5t-4.5 28zM512 263.5v43.5v1843v43.5t4.5 28t8 19t18.5 8t27.5 4.5h43.5h44 t28 -4.5t18.5 -8t8 -18.5t4.5 -28v-44v-1843v-43.5t-4.5 -27.5t-8 -18.5t-19 -8t-28 -4.5h-43.5h-43.5t-28 4.5t-18.5 7.5t-7.5 18.5t-4.5 28zM922 263.5v43.5v1843v43.5t4.5 28t8 19t18.5 8t27.5 4.5h43.5h43.5t27.5 -4.5t18.5 -8t8 -19t4.5 -28v-43.5v-1843v-43.5 t-4.5 -28t-7.5 -18.5t-18.5 -7.5t-28 -4.5h-43.5h-43.5t-28 4.5t-18.5 7.5t-7.5 18.5t-4.5 28zM1331 263.5v43.5v1843v44t4.5 28t8 18.5t18.5 8t28 4.5h44h409q77 0 90 -13.5t13 -89.5v-1843v-43.5t-4.5 -27.5t-8 -18.5t-19 -8t-28 -4.5h-43.5h-409h-43.5t-28 4.5t-19 8 t-8 18.5t-4.5 27.5zM2150 263.5v43.5v1843q0 76 13 89.5t90 13.5h205h43.5t27.5 -4.5t18.5 -8t8 -19t4.5 -28v-43.5v-1843v-43.5t-4.5 -28t-7.5 -18.5t-18.5 -7.5t-28 -4.5h-43.5h-205h-43.5t-28 4.5t-19 8t-8 18.5t-4.5 27.5z" />
<glyph unicode="&#xe035;" d="M410 58.5v43.5v2048v43.5t4.5 28t8 19t18.5 8t27.5 4.5h43.5h410v102v43.5t4.5 28t8 19t18.5 8t27.5 4.5h43.5h410h43.5t27.5 -4.5t18.5 -8t8 -19t4.5 -28v-43.5v-102h410h43.5t27.5 -4.5t18.5 -8t8 -19t4.5 -28v-43.5v-2048v-43.5t-4.5 -28t-7.5 -18.5t-18.5 -7.5 t-28 -4.5h-43.5h-1434h-43.5t-28 4.5t-18.5 7.5t-7.5 18.5t-4.5 28zM614 205h1229v1843h-1229v-1843z" />
<glyph unicode="&#xe036;" d="M410 58.5v43.5v2048v43.5t4.5 28t8 19t18.5 8t27.5 4.5h43.5h410v102v43.5t4.5 28t8 19t18.5 8t27.5 4.5h43.5h410h43.5t27.5 -4.5t18.5 -8t8 -19t4.5 -28v-43.5v-102h410h43.5t27.5 -4.5t18.5 -8t8 -19t4.5 -28v-43.5v-2048v-43.5t-4.5 -28t-7.5 -18.5t-18.5 -7.5 t-28 -4.5h-43.5h-1434h-43.5t-28 4.5t-18.5 7.5t-7.5 18.5t-4.5 28zM614 512h1229v1536h-1229v-1536z" />
<glyph unicode="&#xe037;" d="M410 58.5v43.5v2048v43.5t4.5 28t8 19t18.5 8t27.5 4.5h43.5h410v102v43.5t4.5 28t8 19t18.5 8t27.5 4.5h43.5h410h43.5t27.5 -4.5t18.5 -8t8 -19t4.5 -28v-43.5v-102h410h43.5t27.5 -4.5t18.5 -8t8 -19t4.5 -28v-43.5v-2048v-43.5t-4.5 -28t-7.5 -18.5t-18.5 -7.5 t-28 -4.5h-43.5h-1434h-43.5t-28 4.5t-18.5 7.5t-7.5 18.5t-4.5 28zM614 614h1229v1434h-1229v-1434z" />
<glyph unicode="&#xe038;" d="M410 58.5v43.5v2048v43.5t4.5 28t8 19t18.5 8t27.5 4.5h43.5h410v102v43.5t4.5 28t8 19t18.5 8t27.5 4.5h43.5h410h43.5t27.5 -4.5t18.5 -8t8 -19t4.5 -28v-43.5v-102h410h43.5t27.5 -4.5t18.5 -8t8 -19t4.5 -28v-43.5v-2048v-43.5t-4.5 -28t-7.5 -18.5t-18.5 -7.5 t-28 -4.5h-43.5h-1434h-43.5t-28 4.5t-18.5 7.5t-7.5 18.5t-4.5 28zM614 922h1229v1126h-1229v-1126z" />
<glyph unicode="&#xe039;" d="M410 58.5v43.5v2048v43.5t4.5 28t8 19t18.5 8t27.5 4.5h43.5h410v102v43.5t4.5 28t8 19t18.5 8t27.5 4.5h43.5h410h43.5t27.5 -4.5t18.5 -8t8 -19t4.5 -28v-43.5v-102h410h43.5t27.5 -4.5t18.5 -8t8 -19t4.5 -28v-43.5v-2048v-43.5t-4.5 -28t-7.5 -18.5t-18.5 -7.5 t-28 -4.5h-43.5h-1434h-43.5t-28 4.5t-18.5 7.5t-7.5 18.5t-4.5 28zM614 1126h1229v922h-1229v-922z" />
<glyph unicode="&#xe03a;" d="M410 58.5v43.5v2048v43.5t4.5 28t8 19t18.5 8t27.5 4.5h43.5h410v102v43.5t4.5 28t8 19t18.5 8t27.5 4.5h43.5h410h43.5t27.5 -4.5t18.5 -8t8 -19t4.5 -28v-43.5v-102h410h43.5t27.5 -4.5t18.5 -8t8 -19t4.5 -28v-43.5v-2048v-43.5t-4.5 -28t-7.5 -18.5t-18.5 -7.5 t-28 -4.5h-43.5h-1434h-43.5t-28 4.5t-18.5 7.5t-7.5 18.5t-4.5 28zM614 1331h1229v717h-1229v-717z" />
<glyph unicode="&#xe03b;" d="M410 58.5v43.5v2048v43.5t4.5 28t8 19t18.5 8t27.5 4.5h43.5h410v102v43.5t4.5 28t8 19t18.5 8t27.5 4.5h43.5h410h43.5t27.5 -4.5t18.5 -8t8 -19t4.5 -28v-43.5v-102h410h43.5t27.5 -4.5t18.5 -8t8 -19t4.5 -28v-43.5v-2048v-43.5t-4.5 -28t-7.5 -18.5t-18.5 -7.5 t-28 -4.5h-43.5h-1434h-43.5t-28 4.5t-18.5 7.5t-7.5 18.5t-4.5 28zM614 1536h1229v512h-1229v-512z" />
<glyph unicode="&#xe03c;" d="M410 58.5v43.5v2048v43.5t4.5 28t8 19t18.5 8t27.5 4.5h43.5h410v102v43.5t4.5 28t8 19t18.5 8t27.5 4.5h43.5h410h43.5t27.5 -4.5t18.5 -8t8 -19t4.5 -28v-43.5v-102h410h43.5t27.5 -4.5t18.5 -8t8 -19t4.5 -28v-43.5v-2048v-43.5t-4.5 -28t-7.5 -18.5t-18.5 -7.5 t-28 -4.5h-43.5h-1434h-43.5t-28 4.5t-18.5 7.5t-7.5 18.5t-4.5 28zM614 1741h1229v307h-1229v-307z" />
<glyph unicode="&#xe03d;" d="M410 58.5v43.5v2048v43.5t4.5 28t8 19t18.5 8t27.5 4.5h43.5h410v102v43.5t4.5 28t8 19t18.5 8t27.5 4.5h43.5h410h43.5t27.5 -4.5t18.5 -8t8 -19t4.5 -28v-43.5v-102h410h43.5t27.5 -4.5t18.5 -8t8 -19t4.5 -28v-43.5v-2048v-43.5t-4.5 -28t-7.5 -18.5t-18.5 -7.5 t-28 -4.5h-43.5h-1434h-43.5t-28 4.5t-18.5 7.5t-7.5 18.5t-4.5 28z" />
<glyph unicode="&#xe03e;" d="M410 58.5v43.5v2048v43.5t4.5 28t8 19t18.5 8t27.5 4.5h43.5h410v102v43.5t4.5 28t8 19t18.5 8t27.5 4.5h43.5h410h43.5t27.5 -4.5t18.5 -8t8 -19t4.5 -28v-43.5v-102h410h43.5t27.5 -4.5t18.5 -8t8 -19t4.5 -28v-43.5v-2048v-43.5t-4.5 -28t-7.5 -18.5t-18.5 -7.5 t-28 -4.5h-43.5h-1434h-43.5t-28 4.5t-18.5 7.5t-7.5 18.5t-4.5 28zM819 1126q0 -56 26.5 -111.5t64 -106t75 -105.5t64 -130.5t26.5 -160.5v-102h307v102q0 85 26.5 160.5t64 130.5t75 105.5t64 106t26.5 111.5v308h-153v307q0 36 -24 56.5t-53 20.5t-53 -20.5t-24 -56.5 v-307h-205v307q0 36 -24 56.5t-52.5 20.5t-52.5 -20.5t-24 -56.5v-307h-154v-308z" />
<glyph unicode="&#xe03f;" d="M717 0v1331q0 70 21 136t51 118.5t60.5 105.5t51.5 119t21 136v512h614v-512q0 -70 21 -136t51 -119t60.5 -105.5t51.5 -118.5t21 -136v-1331h-1024zM1120 1843h218q-5 38 -6 89.5t-1 320.5h-205v-118q0 -247 -6 -292z" />
<glyph unicode="&#xe040;" d="M145 2458h2167l-960 -1511v-742h286h44t28 -4.5t18.5 -8t8 -18.5t4.5 -28v-44v-43.5t-4.5 -27.5t-8 -18.5t-19 -8t-28 -4.5h-43.5h-819h-43.5t-28 4.5t-18.5 7.5t-7.5 18.5t-4.5 28v43.5v43.5t4.5 28t8 19t18.5 8t27.5 4.5h43.5h287v742zM517 2253l261 -410h901l261 410 h-1423z" />
<glyph unicode="&#xe041;" d="M369 1966q0 221 82 416l28 76h1499l29 -76q82 -195 82 -416q0 -182 -60 -351t-162.5 -296.5t-242 -214t-293.5 -111.5v-788h307h44t28 -4.5t18.5 -8t8 -18.5t4.5 -28v-44v-43.5t-4.5 -27.5t-8 -18.5t-19 -8t-28 -4.5h-43.5h-819h-43.5t-28 4.5t-18.5 7.5t-7.5 18.5 t-4.5 28v43.5v43.5t4.5 28t8 19t18.5 8t27.5 4.5h43.5h307v788q-207 34 -379.5 170t-275 348.5t-102.5 454.5zM573 1966q0 -85 15 -164h1282q14 74 14 164q0 150 -45 287h-1221q-45 -137 -45 -287z" />
<glyph unicode="&#xe042;" d="M0 0v2048q0 89 29 160t77.5 117t115 76.5t138.5 43.5t152 13h1741v-2048l-205 -205v2048h-1587q-87 0 -146 -49t-59 -156h1587v-2048h-1843z" />
<glyph unicode="&#xe043;" d="M0 0v2048q0 89 29 160t77.5 117t115 76.5t138.5 43.5t152 13h1741v-2048l-205 -205v2048h-1587q-87 0 -146 -49t-59 -156h1587v-2048h-1843zM410 410h1024v219l-305 101q-31 10 -49.5 26t-23.5 32.5t-7 34.5t1 34q56 42 89 96.5t43 143.5l19 150q20 166 -60 263.5 t-219 97.5t-219 -97.5t-60 -263.5l18 -150q10 -89 43 -143.5t89 -96.5q3 -16 1 -34t-7 -34.5t-23.5 -32.5t-49.5 -26l-304 -101v-219z" />
<glyph unicode="&#xe044;" d="M0 205v1843q97 78 243.5 121t312 46t345.5 -52t328 -166q148 111 328 166t345.5 52t312 -46t243.5 -121v-1843q-97 78 -243.5 121t-312 46t-345.5 -52t-328 -166q-148 111 -328 166t-345.5 52t-312 -46t-243.5 -121zM1229 410q134 74 259.5 118t226 58.5t201 7 t176.5 -27.5t161 -54v1434q-66 33 -140.5 53t-175.5 24.5t-207 -14.5t-237 -73.5t-264 -143.5v-1382z" />
<glyph unicode="&#xe045;" d="M0 58.5v43.5v205v43.5t4.5 28t8 19t18.5 8t27.5 4.5h43.5q76 0 89.5 -13t13.5 -90v-102h102q77 0 90 -13.5t13 -89.5v-43.5t-4.5 -27.5t-8 -18.5t-19 -8t-28 -4.5h-43.5h-205h-43.5t-28 4.5t-18.5 7.5t-7.5 18.5t-4.5 28zM0 673.5v43.5v205v43.5t4.5 28t7.5 18.5 t18.5 7.5t28 4.5h43.5h43.5t28 -4.5t19 -8t8 -18.5t4.5 -27.5v-43.5v-205q0 -77 -13.5 -90t-89.5 -13h-43.5t-27.5 4.5t-18.5 8t-8 19t-4.5 28zM0 1287.5v43.5v205v43.5t4.5 28t7.5 18.5t18.5 7.5t28 4.5h43.5h43.5t28 -4.5t19 -8t8 -18.5t4.5 -27.5v-43.5v-205v-43.5 t-4.5 -27.5t-8 -18.5t-19 -8t-28 -4.5h-43.5h-43.5t-28 4.5t-18.5 7.5t-7.5 18.5t-4.5 28zM0 1902.5v43.5v204v43.5t4.5 28t8 19t18.5 8t27.5 4.5h43.5h205q77 0 90 -13.5t13 -89.5v-43.5t-4.5 -27.5t-8 -18.5t-19 -8t-28 -4.5h-43.5h-102v-102v-44t-4.5 -28t-8 -18.5 t-18.5 -8t-28 -4.5h-44h-43.5t-27.5 4.5t-18.5 8t-8 19t-4.5 28zM614 58.5v43.5q0 76 13 89.5t90 13.5h205h43.5t27.5 -4.5t18.5 -8t8 -19t4.5 -28v-43.5v-43.5t-4.5 -28t-7.5 -18.5t-18.5 -7.5t-28 -4.5h-43.5h-205h-43.5t-28 4.5t-19 8t-8 18.5t-4.5 27.5zM614 2106.5 v43.5q0 76 13 89.5t90 13.5h205h43.5t27.5 -4.5t18.5 -8t8 -19t4.5 -28v-43.5v-43.5t-4.5 -28t-7.5 -18.5t-18.5 -7.5t-28 -4.5h-43.5h-205h-43.5t-28 4.5t-19 8t-8 18.5t-4.5 27.5zM1229 58.5v43.5v43.5t4.5 28t8 19t18.5 8t27.5 4.5h43.5h205h43.5t27.5 -4.5t18.5 -8 t8 -19t4.5 -28v-43.5v-43.5t-4.5 -28t-7.5 -18.5t-18.5 -7.5t-28 -4.5h-43.5h-205h-43.5t-28 4.5t-18.5 7.5t-7.5 18.5t-4.5 28zM1229 2106.5v43.5v43.5t4.5 28t8 19t18.5 8t27.5 4.5h43.5h205h43.5t27.5 -4.5t18.5 -8t8 -19t4.5 -28v-43.5v-43.5t-4.5 -28t-7.5 -18.5 t-18.5 -7.5t-28 -4.5h-43.5h-205h-43.5t-28 4.5t-18.5 7.5t-7.5 18.5t-4.5 28zM1843 58.5v43.5v44t4.5 28t8 18.5t18.5 8t28 4.5h44h102v102v43.5t4.5 28t8 19t18.5 8t27.5 4.5h43.5q76 0 89.5 -13t13.5 -90v-205v-43.5t-4.5 -27.5t-8 -18.5t-19 -8t-28 -4.5h-43.5h-204 h-43.5t-28 4.5t-19 8t-8 18.5t-4.5 27.5zM1843 2106.5v43.5v44t4.5 28t8 18.5t18.5 8t28 4.5h44h204h44t28 -4.5t18.5 -8t8 -18.5t4.5 -28v-44v-204v-44t-4.5 -28t-8 -18.5t-18.5 -8t-28 -4.5h-44h-43.5t-27.5 4.5t-18.5 8t-8 19t-4.5 28v43.5v102h-102h-43.5t-28 4.5t-19 8 t-8 18.5t-4.5 27.5zM2048 673.5v43.5v205v43.5t4.5 28t7.5 18.5t18.5 7.5t28 4.5h43.5h43.5t28 -4.5t19 -8t8 -18.5t4.5 -27.5v-43.5v-205q0 -77 -13.5 -90t-89.5 -13h-43.5t-27.5 4.5t-18.5 8t-8 19t-4.5 28zM2048 1287.5v43.5v205v43.5t4.5 28t7.5 18.5t18.5 7.5t28 4.5 h43.5h43.5t28 -4.5t19 -8t8 -18.5t4.5 -27.5v-43.5v-205v-43.5t-4.5 -27.5t-8 -18.5t-19 -8t-28 -4.5h-43.5h-43.5t-28 4.5t-18.5 7.5t-7.5 18.5t-4.5 28z" />
<glyph unicode="&#xe046;" d="M0 58.5v43.5v43.5t4.5 28t8 19t18.5 8t27.5 4.5h43.5h44t28 -4.5t18.5 -8t8 -18.5t4.5 -28v-44v-43.5t-4.5 -27.5t-8 -18.5t-19 -8t-28 -4.5h-43.5h-43.5t-28 4.5t-18.5 7.5t-7.5 18.5t-4.5 28zM0 468.5v43.5v43.5t4.5 28t7.5 18.5t18.5 7.5t28 4.5h43.5h43.5t28 -4.5 t19 -8t8 -18.5t4.5 -27.5v-43.5v-43.5t-4.5 -27.5t-8 -18.5t-19 -8t-28 -4.5h-43.5h-43.5t-28 4.5t-18.5 7.5t-7.5 18.5t-4.5 28zM0 878.5v43.5v43.5t4.5 28t7.5 18.5t18.5 7.5t28 4.5h43.5h43.5t28 -4.5t19 -8t8 -18.5t4.5 -27.5v-43.5v-44t-4.5 -28t-8 -18.5t-18.5 -8 t-28 -4.5h-44h-43.5t-27.5 4.5t-18.5 8t-8 19t-4.5 28zM0 1287.5v43.5v43.5t4.5 28t8 19t18.5 8t27.5 4.5h43.5q76 0 89.5 -13t13.5 -90v-43.5t-4.5 -27.5t-8 -18.5t-19 -8t-28 -4.5h-43.5h-43.5t-28 4.5t-18.5 7.5t-7.5 18.5t-4.5 28zM0 1697.5v43.5v43.5t4.5 28t7.5 18.5 t18.5 7.5t28 4.5h43.5h43.5t28 -4.5t19 -8t8 -18.5t4.5 -27.5v-43.5q0 -77 -13.5 -90t-89.5 -13h-43.5t-27.5 4.5t-18.5 8t-8 19t-4.5 28zM0 2106.5v43.5v43.5t4.5 28t8 19t18.5 8t27.5 4.5h43.5h44t28 -4.5t18.5 -8t8 -18.5t4.5 -28v-44v-43.5t-4.5 -27.5t-8 -18.5t-19 -8 t-28 -4.5h-43.5h-43.5t-28 4.5t-18.5 7.5t-7.5 18.5t-4.5 28zM410 58.5v43.5v43.5t4.5 28t8 19t18.5 8t27.5 4.5h43.5h43.5t27.5 -4.5t18.5 -8t8 -19t4.5 -28v-43.5v-43.5t-4.5 -28t-7.5 -18.5t-18.5 -7.5t-28 -4.5h-43.5h-43.5t-28 4.5t-18.5 7.5t-7.5 18.5t-4.5 28z M410 2106.5v43.5v43.5t4.5 28t8 19t18.5 8t27.5 4.5h43.5h43.5t27.5 -4.5t18.5 -8t8 -19t4.5 -28v-43.5v-43.5t-4.5 -28t-7.5 -18.5t-18.5 -7.5t-28 -4.5h-43.5h-43.5t-28 4.5t-18.5 7.5t-7.5 18.5t-4.5 28zM819 58.5v43.5v44t4.5 28t8 18.5t18.5 8t28 4.5h44h43.5 t27.5 -4.5t18.5 -8t8 -19t4.5 -28v-43.5v-43.5t-4.5 -28t-7.5 -18.5t-18.5 -7.5t-28 -4.5h-43.5h-43.5t-28 4.5t-19 8t-8 18.5t-4.5 27.5zM819 2106.5v43.5v44t4.5 28t8 18.5t18.5 8t28 4.5h44h43.5t27.5 -4.5t18.5 -8t8 -19t4.5 -28v-43.5v-43.5t-4.5 -28t-7.5 -18.5 t-18.5 -7.5t-28 -4.5h-43.5h-43.5t-28 4.5t-19 8t-8 18.5t-4.5 27.5zM1229 58.5v43.5v43.5t4.5 28t8 19t18.5 8t27.5 4.5h43.5q77 0 90 -13.5t13 -89.5v-43.5t-4.5 -27.5t-8 -18.5t-19 -8t-28 -4.5h-43.5h-43.5t-28 4.5t-18.5 7.5t-7.5 18.5t-4.5 28zM1229 2106.5v43.5v43.5 t4.5 28t8 19t18.5 8t27.5 4.5h43.5q77 0 90 -13.5t13 -89.5v-43.5t-4.5 -27.5t-8 -18.5t-19 -8t-28 -4.5h-43.5h-43.5t-28 4.5t-18.5 7.5t-7.5 18.5t-4.5 28zM1638 58.5v43.5q0 76 13 89.5t90 13.5h43.5t27.5 -4.5t18.5 -8t8 -19t4.5 -28v-43.5v-43.5t-4.5 -28t-7.5 -18.5 t-18.5 -7.5t-28 -4.5h-43.5h-43.5t-28 4.5t-19 8t-8 18.5t-4.5 27.5zM1638 2106.5v43.5q0 76 13 89.5t90 13.5h43.5t27.5 -4.5t18.5 -8t8 -19t4.5 -28v-43.5v-43.5t-4.5 -28t-7.5 -18.5t-18.5 -7.5t-28 -4.5h-43.5h-43.5t-28 4.5t-19 8t-8 18.5t-4.5 27.5zM2048 58.5v43.5 v43.5t4.5 28t8 19t18.5 8t27.5 4.5h43.5h44t28 -4.5t18.5 -8t8 -18.5t4.5 -28v-44v-43.5t-4.5 -27.5t-8 -18.5t-19 -8t-28 -4.5h-43.5h-43.5t-28 4.5t-18.5 7.5t-7.5 18.5t-4.5 28zM2048 468.5v43.5v43.5t4.5 28t7.5 18.5t18.5 7.5t28 4.5h43.5h43.5t28 -4.5t19 -8t8 -18.5 t4.5 -27.5v-43.5v-43.5t-4.5 -27.5t-8 -18.5t-19 -8t-28 -4.5h-43.5h-43.5t-28 4.5t-18.5 7.5t-7.5 18.5t-4.5 28zM2048 878.5v43.5v43.5t4.5 28t7.5 18.5t18.5 7.5t28 4.5h43.5h43.5t28 -4.5t19 -8t8 -18.5t4.5 -27.5v-43.5v-44t-4.5 -28t-8 -18.5t-18.5 -8t-28 -4.5h-44 h-43.5t-27.5 4.5t-18.5 8t-8 19t-4.5 28zM2048 1287.5v43.5v43.5t4.5 28t8 19t18.5 8t27.5 4.5h43.5q76 0 89.5 -13t13.5 -90v-43.5t-4.5 -27.5t-8 -18.5t-19 -8t-28 -4.5h-43.5h-43.5t-28 4.5t-18.5 7.5t-7.5 18.5t-4.5 28zM2048 1697.5v43.5v43.5t4.5 28t7.5 18.5 t18.5 7.5t28 4.5h43.5h43.5t28 -4.5t19 -8t8 -18.5t4.5 -27.5v-43.5q0 -77 -13.5 -90t-89.5 -13h-43.5t-27.5 4.5t-18.5 8t-8 19t-4.5 28zM2048 2106.5v43.5v43.5t4.5 28t8 19t18.5 8t27.5 4.5h43.5h44t28 -4.5t18.5 -8t8 -18.5t4.5 -28v-44v-43.5t-4.5 -27.5t-8 -18.5 t-19 -8t-28 -4.5h-43.5h-43.5t-28 4.5t-18.5 7.5t-7.5 18.5t-4.5 28z" />
<glyph unicode="&#xe047;" d="M0 154l998 998l-179 179l615 103l-103 -615l-179 179l-998 -998q-154 0 -154 154zM0 2106.5v43.5v43.5t4.5 28t8 19t18.5 8t27.5 4.5h43.5h205h30q263 -3 484 -44q4 31 21.5 37.5t79.5 6.5h42t27.5 -3.5t19 -7.5t8.5 -16.5t5 -25v-38.5q101 -28 206 -71q-1 7 -1 59v43.5 t4.5 28t8 19t18.5 8t27.5 4.5h43.5q77 0 90 -13.5t13 -89.5v-43.5t-4.5 -27.5t-8 -18.5t-19 -8t-28 -4.5h-43.5h-4q486 -233 721 -720v3v43.5t4.5 28t8 19t18.5 8t27.5 4.5h43.5q76 0 89.5 -13t13.5 -90v-43.5t-4.5 -27.5t-8 -18.5t-19 -8t-28 -4.5h-43.5q-52 0 -59 1 q43 -105 71 -206h38.5t25 -5t16.5 -8.5t7.5 -19t3.5 -27.5v-42q0 -62 -6.5 -79.5t-37.5 -21.5q41 -228 44 -484v-30v-205v-43.5t-4.5 -27.5t-8 -18.5t-19 -8t-28 -4.5h-43.5h-43.5t-28 4.5t-18.5 7.5t-7.5 18.5t-4.5 28v43.5v205q0 845 -448 1293t-1293 448h-205h-43.5 t-28 4.5t-18.5 7.5t-7.5 18.5t-4.5 28zM1638 2106.5v43.5q0 76 13 89.5t90 13.5h43.5t27.5 -4.5t18.5 -8t8 -19t4.5 -28v-43.5v-43.5t-4.5 -28t-7.5 -18.5t-18.5 -7.5t-28 -4.5h-43.5h-43.5t-28 4.5t-19 8t-8 18.5t-4.5 27.5zM2048 1697.5v43.5v43.5t4.5 28t7.5 18.5 t18.5 7.5t28 4.5h43.5h43.5t28 -4.5t19 -8t8 -18.5t4.5 -27.5v-43.5q0 -77 -13.5 -90t-89.5 -13h-43.5t-27.5 4.5t-18.5 8t-8 19t-4.5 28zM2048 2106.5v43.5v43.5t4.5 28t8 19t18.5 8t27.5 4.5h43.5h44t28 -4.5t18.5 -8t8 -18.5t4.5 -28v-44v-43.5t-4.5 -27.5t-8 -18.5 t-19 -8t-28 -4.5h-43.5h-43.5t-28 4.5t-18.5 7.5t-7.5 18.5t-4.5 28z" />
<glyph unicode="&#xe048;" d="M0 58.5v43.5v2048v43.5t4.5 28t8 19t18.5 8t27.5 4.5h43.5h2048h44t28 -4.5t18.5 -8t8 -18.5t4.5 -28v-44v-2048v-43.5t-4.5 -27.5t-8 -18.5t-19 -8t-28 -4.5h-43.5h-2048h-43.5t-28 4.5t-18.5 7.5t-7.5 18.5t-4.5 28zM205 205h1843v1843h-1843v-1843z" />
<glyph unicode="&#xe049;" d="M0 1185.5v43.5v43.5t4.5 28t7.5 18.5t18.5 7.5t28 4.5h43.5h205h43.5t28 -4.5t19 -8t8 -18.5t4.5 -27.5v-43.5q0 -77 -13 -90t-90 -13h-205h-43.5t-27.5 4.5t-18.5 8t-8 19t-4.5 28zM305 432q0 5 7.5 19t16.5 23l31 31l145 145q22 22 30.5 31t22.5 16.5t19 7.5t19 -7.5 t23 -16.5l31 -31l31 -31t16.5 -23t7.5 -19t-7.5 -19t-16.5 -22.5t-31 -30.5l-145 -145l-31 -31t-23 -16.5t-19 -7.5t-19 7.5t-22.5 16.5t-30.5 31t-31 30.5t-16.5 22.5t-7.5 19zM305 2026q0 5 7.5 19t16.5 22.5t31 30.5t30.5 31t22.5 16.5t19 7.5t19 -7.5t23 -16.5l31 -31 l145 -145q22 -22 31 -30.5t16.5 -22.5t7.5 -19t-7.5 -19t-16.5 -23l-31 -31l-31 -31t-23 -16.5t-19 -7.5t-19 7.5t-22.5 16.5t-30.5 31l-145 145l-31 31t-16.5 23t-7.5 19zM614 1229q0 125 49 238.5t131 196t196 131t239 48.5t238.5 -48.5t196 -131t131 -196t48.5 -238.5 t-48.5 -239t-131 -196t-196 -131t-238.5 -49q-167 0 -308.5 82.5t-224 224t-82.5 308.5zM819 1229q0 -169 120.5 -289.5t289.5 -120.5t289 120t120 290q0 169 -120 289t-289 120q-170 0 -290 -120t-120 -289zM1126 58.5v43.5v205q0 77 13 90t90 13h43.5t27.5 -4.5t18.5 -8 t8 -19t4.5 -28v-43.5v-205v-43.5t-4.5 -28t-7.5 -18.5t-18.5 -7.5t-28 -4.5h-43.5h-43.5t-28 4.5t-19 8t-8 18.5t-4.5 27.5zM1126 2106.5v43.5v205q0 77 13 90t90 13h43.5t27.5 -4.5t18.5 -8t8 -19t4.5 -28v-43.5v-205v-43.5t-4.5 -28t-7.5 -18.5t-18.5 -7.5t-28 -4.5h-43.5 h-43.5t-28 4.5t-19 8t-8 18.5t-4.5 27.5zM1753 577q0 5 7.5 19t16.5 23l31 31l31 31t23 16.5t19 7.5t19 -7.5t22.5 -16.5t30.5 -31l145 -145l31 -31t16.5 -23t7.5 -19t-7.5 -19t-16.5 -22.5t-31 -30.5t-30.5 -31t-22.5 -16.5t-19 -7.5t-19 7.5t-23 16.5l-31 31l-145 145 q-22 22 -31 30.5t-16.5 22.5t-7.5 19zM1753 1881q0 5 7.5 19t16.5 22.5t31 30.5l145 145l31 31t23 16.5t19 7.5t19 -7.5t22.5 -16.5t30.5 -31t31 -30.5t16.5 -22.5t7.5 -19t-7.5 -19t-16.5 -23l-31 -31l-145 -145q-22 -22 -30.5 -31t-22.5 -16.5t-19 -7.5t-19 7.5t-23 16.5 l-31 31l-31 31t-16.5 23t-7.5 19zM2048 1185.5v43.5v43.5t4.5 28t7.5 18.5t18.5 7.5t28 4.5h43.5h205h43.5t28 -4.5t19 -8t8 -18.5t4.5 -27.5v-43.5q0 -77 -13 -90t-90 -13h-205h-43.5t-27.5 4.5t-18.5 8t-8 19t-4.5 28z" />
<glyph unicode="&#xe04a;" d="M0 58.5v43.5v2253v43.5t4.5 28t8 19t18.5 8t27.5 4.5h43.5h1639h43.5t27.5 -4.5t18.5 -8t8 -19t4.5 -28v-43.5v-2253v-43.5t-4.5 -28t-7.5 -18.5t-18.5 -7.5t-28 -4.5h-43.5h-1639h-43.5t-28 4.5t-18.5 7.5t-7.5 18.5t-4.5 28zM205 205h1433v2048h-1433v-2048zM410 468.5 v43.5v43.5t4.5 28t7.5 18.5t18.5 7.5t28 4.5h43.5h43.5t28 -4.5t18.5 -7.5t7.5 -18.5t4.5 -28v-43.5v-43.5t-4.5 -28t-7.5 -18.5t-18.5 -7.5t-28 -4.5h-43.5h-43.5t-28 4.5t-18.5 7.5t-7.5 18.5t-4.5 28zM410 878.5v43.5v43.5t4.5 28t7.5 18.5t18.5 7.5t28 4.5h43.5h43.5 t28 -4.5t18.5 -7.5t7.5 -18.5t4.5 -28v-43.5v-43.5t-4.5 -28t-8 -19t-18.5 -8t-27.5 -4.5h-43.5h-43.5t-27.5 4.5t-18.5 8t-8 19t-4.5 28zM410 1287.5v43.5v43.5t4.5 28t8 19t18.5 8t27.5 4.5h43.5h43.5t27.5 -4.5t18.5 -8t8 -19t4.5 -28v-43.5v-43.5t-4.5 -28t-7.5 -18.5 t-18.5 -7.5t-28 -4.5h-43.5h-43.5t-28 4.5t-18.5 7.5t-7.5 18.5t-4.5 28zM410 1697.5v43.5v205v43.5t4.5 28t7.5 18.5t18.5 7.5t28 4.5h43.5h819h43.5t28 -4.5t19 -8t8 -18.5t4.5 -27.5v-43.5v-205q0 -77 -13 -90t-90 -13h-819h-43.5t-27.5 4.5t-18.5 8t-8 19t-4.5 28z M819 468.5v43.5v43.5t4.5 27.5t8 18.5t19 8t28 4.5h43.5h43.5t28 -4.5t18.5 -7.5t7.5 -18.5t4.5 -28v-43.5v-43.5t-4.5 -28t-7.5 -18.5t-18.5 -7.5t-28 -4.5h-43.5h-43.5t-28 4.5t-19 8t-8 18.5t-4.5 27.5zM819 878v44v43.5t4.5 27.5t8 18.5t19 8t28 4.5h43.5h43.5t28 -4.5 t18.5 -7.5t7.5 -18.5t4.5 -28v-43.5v-43.5t-4.5 -28t-8 -19t-18.5 -8t-27.5 -4.5h-43.5h-44t-28 4.5t-18.5 8t-8 18.5t-4.5 28zM819 1287.5v43.5q0 77 13.5 90t89.5 13h43.5t27.5 -4.5t18.5 -8t8 -19t4.5 -28v-43.5v-43.5t-4.5 -28t-7.5 -18.5t-18.5 -7.5t-28 -4.5h-43.5 h-43.5t-28 4.5t-19 8t-8 18.5t-4.5 27.5zM1229 468.5v43.5v43.5t4.5 28t7.5 18.5t18.5 7.5t28 4.5h43.5h43.5t28 -4.5t19 -8t8 -18.5t4.5 -27.5v-43.5v-43.5t-4.5 -27.5t-8 -18.5t-19 -8t-28 -4.5h-43.5h-43.5t-28 4.5t-18.5 7.5t-7.5 18.5t-4.5 28zM1229 878.5v43.5v43.5 t4.5 28t7.5 18.5t18.5 7.5t28 4.5h43.5h43.5t28 -4.5t19 -8t8 -18.5t4.5 -27.5v-43.5q0 -76 -13 -89.5t-90 -13.5h-43.5t-27.5 4.5t-18.5 8t-8 19t-4.5 28zM1229 1331v43.5t4.5 28t8 19t18.5 8t27.5 4.5h43.5q77 0 90 -13t13 -90v-43.5t-4.5 -27.5t-8 -18.5t-19 -8t-28 -4.5 h-43.5q-77 0 -89.5 12.5t-12.5 89.5z" />
<glyph unicode="&#xe04b;" d="M205 58.5v43.5v2253v43.5t4.5 28t8 19t18.5 8t27.5 4.5h43.5h1639h43.5t27.5 -4.5t18.5 -8t8 -19t4.5 -28v-43.5v-2253v-43.5t-4.5 -28t-7.5 -18.5t-18.5 -7.5t-28 -4.5h-43.5h-1639h-43.5t-28 4.5t-18.5 7.5t-7.5 18.5t-4.5 28zM410 263.5q0 -12.5 4.5 -28t7.5 -18.5 t18.5 -7.5t28 -4.5h43.5h43.5t28 4.5t18.5 7.5t7.5 18.5t4.5 28v43.5v43.5t-4.5 28t-8 19t-18.5 8t-27.5 4.5h-43.5h-43.5t-27.5 -4.5t-18.5 -8t-8 -19t-4.5 -28v-43.5v-43.5zM410 673.5q0 -12.5 4.5 -28t8 -19t18.5 -8t27.5 -4.5h43.5h43.5t27.5 4.5t18.5 8t8 19t4.5 28 v43.5v43.5t-4.5 28t-7.5 18.5t-18.5 7.5t-28 4.5h-43.5h-43.5t-28 -4.5t-18.5 -7.5t-7.5 -18.5t-4.5 -28v-43.5v-43.5zM410 1082.5q0 -12.5 4.5 -28t7.5 -18.5t18.5 -7.5t28 -4.5h43.5h43.5t28 4.5t18.5 7.5t7.5 18.5t4.5 28v43.5v43.5t-4.5 28t-8 19t-18.5 8t-27.5 4.5 h-43.5h-43.5t-27.5 -4.5t-18.5 -8t-8 -19t-4.5 -28v-43.5v-43.5zM410 1492.5q0 -12.5 4.5 -28t7.5 -18.5t18.5 -7.5t28 -4.5h43.5h43.5t28 4.5t18.5 7.5t7.5 18.5t4.5 28v43.5v43.5t-4.5 28t-7.5 18.5t-18.5 7.5t-28 4.5h-43.5h-43.5t-28 -4.5t-18.5 -7.5t-7.5 -18.5 t-4.5 -28v-43.5v-43.5zM410 1902.5q0 -12.5 4.5 -28t8 -19t18.5 -8t27.5 -4.5h43.5h1229h43.5t27.5 4.5t18.5 8t8 19t4.5 28v43.5v204v43.5t-4.5 28t-8 19t-18.5 8t-27.5 4.5h-43.5h-1229h-43.5t-27.5 -4.5t-18.5 -8t-8 -19t-4.5 -28v-43.5v-204v-43.5zM819 263.5 q0 -12.5 4.5 -27.5t8 -18.5t19 -8t28 -4.5h43.5h43.5t28 4.5t18.5 7.5t7.5 18.5t4.5 28v43.5v43.5t-4.5 28t-8 19t-18.5 8t-27.5 4.5h-43.5q-76 0 -89.5 -13t-13.5 -90v-43.5zM819 717q0 -77 13.5 -90t89.5 -13h43.5t27.5 4.5t18.5 8t8 19t4.5 28v43.5v43.5t-4.5 28 t-7.5 18.5t-18.5 7.5t-28 4.5h-43.5h-43.5t-28 -4.5t-19 -8t-8 -18.5t-4.5 -27.5v-43.5zM819 1082.5q0 -12.5 4.5 -27.5t8 -18.5t19 -8t28 -4.5h43.5h43.5t28 4.5t18.5 7.5t7.5 18.5t4.5 28v43.5v43.5t-4.5 28t-8 19t-18.5 8t-27.5 4.5h-43.5h-44t-28 -4.5t-18.5 -8 t-8 -18.5t-4.5 -28v-44v-43.5zM819 1492.5q0 -12.5 4.5 -27.5t8 -18.5t19 -8t28 -4.5h43.5h43.5t28 4.5t18.5 7.5t7.5 18.5t4.5 28v43.5v43.5t-4.5 28t-7.5 18.5t-18.5 7.5t-28 4.5h-43.5h-43.5t-28 -4.5t-19 -8t-8 -18.5t-4.5 -27.5v-43.5v-43.5zM1229 307 q0 -77 12.5 -89.5t89.5 -12.5h43.5t28 4.5t19 8t8 18.5t4.5 27.5v43.5q0 77 -13 90t-90 13h-43.5t-27.5 -4.5t-18.5 -8t-8 -19t-4.5 -28v-43.5zM1229 673.5q0 -12.5 4.5 -28t8 -19t18.5 -8t27.5 -4.5h43.5q77 0 90 13t13 90v43.5t-4.5 27.5t-8 18.5t-19 8t-28 4.5h-43.5 q-77 0 -89.5 -12.5t-12.5 -89.5v-43.5zM1229 1082.5q0 -12.5 4.5 -28t7.5 -18.5t18.5 -7.5t28 -4.5h43.5h43.5t28 4.5t19 8t8 18.5t4.5 27.5v43.5q0 76 -13 89.5t-90 13.5h-43.5t-27.5 -4.5t-18.5 -8t-8 -19t-4.5 -28v-43.5v-43.5zM1229 1492.5q0 -12.5 4.5 -28t7.5 -18.5 t18.5 -7.5t28 -4.5h43.5h43.5t28 4.5t19 8t8 18.5t4.5 27.5v43.5v43.5t-4.5 27.5t-8 18.5t-19 8t-28 4.5h-43.5h-43.5t-28 -4.5t-18.5 -7.5t-7.5 -18.5t-4.5 -28v-43.5v-43.5zM1638 263.5q0 -12.5 4.5 -27.5t8 -18.5t19 -8t28 -4.5h43.5q77 0 89.5 12.5t12.5 89.5v410 q0 77 -12.5 89.5t-89.5 12.5h-43.5t-28 -4.5t-19 -8t-8 -18.5t-4.5 -27.5v-43.5v-410v-43.5zM1638 1082.5q0 -12.5 4.5 -27.5t8 -18.5t19 -8t28 -4.5h43.5h43.5t28 4.5t18.5 7.5t7.5 18.5t4.5 28v43.5v43.5t-4.5 28t-8 19t-18.5 8t-27.5 4.5h-43.5q-77 0 -90 -13.5 t-13 -89.5v-43.5zM1638 1492.5q0 -12.5 4.5 -27.5t8 -18.5t19 -8t28 -4.5h43.5h43.5t28 4.5t18.5 7.5t7.5 18.5t4.5 28v43.5v43.5t-4.5 28t-7.5 18.5t-18.5 7.5t-28 4.5h-43.5h-43.5t-28 -4.5t-19 -8t-8 -18.5t-4.5 -27.5v-43.5v-43.5z" />
<glyph unicode="&#xe04c;" d="M0 468.5v43.5v1434v43.5t4.5 28t7.5 18.5t18.5 7.5t28 4.5h43.5h308v102v43.5t4.5 28t8 19t18.5 8t27.5 4.5h43.5h43.5t27.5 -4.5t18.5 -8t8 -19t4.5 -28v-43.5v-102h1741h43.5t28 -4.5t19 -8t8 -18.5t4.5 -27.5v-43.5v-1434v-43.5t-4.5 -27.5t-8 -18.5t-19 -8t-28 -4.5 h-43.5h-2253h-43.5t-28 4.5t-18.5 7.5t-7.5 18.5t-4.5 28zM768 1229q0 -191 135 -326t326 -135q125 0 231 61.5t168 168t62 231.5t-62 231t-168 168t-231 62t-231.5 -62t-168 -168t-61.5 -231zM973 1229q0 106 75 181t181 75t181 -75t75 -181t-75 -181t-181 -75t-181 75 t-75 181zM1843 1562q0 -53 37.5 -90.5t90.5 -37.5t90.5 37.5t37.5 90.5t-37.5 90.5t-90.5 37.5t-90.5 -37.5t-37.5 -90.5z" />
<glyph unicode="&#xe04d;" d="M-410 468.5v43.5v43.5t4.5 27.5t8 18.5t19 8t28 4.5h43.5h205h43.5t28 -4.5t18.5 -7.5t7.5 -18.5t4.5 -28v-43.5v-43.5t-4.5 -28t-7.5 -18.5t-18.5 -7.5t-28 -4.5h-43.5h-205h-43.5t-28 4.5t-19 8t-8 18.5t-4.5 27.5zM-410 1946v43.5t4.5 27.5t8 18.5t19 8t28 4.5h43.5 h205h43.5t28 -4.5t18.5 -7.5t7.5 -18.5t4.5 -28v-43.5v-43.5t-4.5 -28t-8 -19t-18.5 -8t-27.5 -4.5h-43.5h-205q-77 0 -90 13.5t-13 89.5zM205 -102v204v43.5t4.5 28t8 19t18.5 8t27.5 4.5h43.5q77 0 90 -13.5t13 -89.5v-204q0 -76 -13 -89.5t-90 -13.5h-43.5t-27.5 4.5 t-18.5 8t-8 19t-4.5 28v43.5zM205 468.5v43.5v1434v43.5t4.5 28t7.5 18.5t18.5 7.5t28 4.5h43.5h1843h43.5t28 -4.5t19 -8t8 -18.5t4.5 -27.5v-43.5v-1434v-43.5t-4.5 -27.5t-8 -18.5t-19 -8t-28 -4.5h-43.5h-1843h-43.5t-28 4.5t-18.5 7.5t-7.5 18.5t-4.5 28zM205 2355v205 v43.5t4.5 28t7.5 18.5t18.5 7.5t28 4.5h43.5h43.5t28 -4.5t19 -8t8 -18.5t4.5 -27.5v-43.5v-205v-43.5t-4.5 -27.5t-8 -18.5t-19 -8t-28 -4.5h-43.5q-77 0 -89.5 12.5t-12.5 89.5zM410 614h1638v1229h-1638v-1229zM2048 -102v204v43.5t4.5 28t8 19t18.5 8t27.5 4.5h43.5h44 t28 -4.5t18.5 -8t8 -18.5t4.5 -28v-44v-204v-44t-4.5 -28t-8 -18.5t-18.5 -8t-28 -4.5h-44h-43.5t-27.5 4.5t-18.5 8t-8 19t-4.5 28v43.5zM2048 2311.5v43.5v205v43.5t4.5 28t7.5 18.5t18.5 7.5t28 4.5h43.5h43.5t28 -4.5t19 -8t8 -18.5t4.5 -27.5v-43.5v-205v-43.5 t-4.5 -27.5t-8 -18.5t-19 -8t-28 -4.5h-43.5h-43.5t-28 4.5t-18.5 7.5t-7.5 18.5t-4.5 28zM2458 468.5v43.5v43.5t4.5 28t7.5 18.5t18.5 7.5t28 4.5h43.5h205h43.5t28 -4.5t18.5 -7.5t7.5 -18.5t4.5 -28v-43.5v-43.5t-4.5 -28t-7.5 -18.5t-18.5 -7.5t-28 -4.5h-43.5h-205 h-43.5t-28 4.5t-18.5 7.5t-7.5 18.5t-4.5 28zM2458 1902.5v43.5v43.5t4.5 28t7.5 18.5t18.5 7.5t28 4.5h43.5h205h43.5t28 -4.5t18.5 -7.5t7.5 -18.5t4.5 -28v-43.5v-43.5t-4.5 -28t-8 -19t-18.5 -8t-27.5 -4.5h-43.5h-205h-43.5t-27.5 4.5t-18.5 8t-8 19t-4.5 28z" />
<glyph unicode="&#xe04e;" d="M0 468.5v43.5v43.5t4.5 28t7.5 18.5t18.5 7.5t28 4.5h43.5h103h43.5t28 -4.5t18.5 -7.5t7.5 -18.5t4.5 -28v-43.5v-43.5t-4.5 -28t-7.5 -18.5t-18.5 -7.5t-28 -4.5h-43.5h-103h-43.5t-28 4.5t-18.5 7.5t-7.5 18.5t-4.5 28zM0 1902.5v43.5v43.5t4.5 28t7.5 18.5t18.5 7.5 t28 4.5h43.5h103h43.5t28 -4.5t18.5 -7.5t7.5 -18.5t4.5 -28v-43.5v-43.5t-4.5 -28t-8 -19t-18.5 -8t-27.5 -4.5h-43.5h-103h-43.5t-27.5 4.5t-18.5 8t-8 19t-4.5 28zM410 58.5v43.5v103v43.5t4.5 28t7.5 18.5t18.5 7.5t28 4.5h43.5h43.5t28 -4.5t18.5 -7.5t7.5 -18.5 t4.5 -28v-43.5v-103v-43.5t-4.5 -28t-7.5 -18.5t-18.5 -7.5t-28 -4.5h-43.5h-43.5t-28 4.5t-18.5 7.5t-7.5 18.5t-4.5 28zM410 468.5v43.5v1434v43.5t4.5 28t7.5 18.5t18.5 7.5t28 4.5h43.5h1434h43.5t28 -4.5t18.5 -7.5t7.5 -18.5t4.5 -28v-43.5v-1434v-43.5t-4.5 -28 t-7.5 -18.5t-18.5 -7.5t-28 -4.5h-43.5h-1434h-43.5t-28 4.5t-18.5 7.5t-7.5 18.5t-4.5 28zM410 2209.5v43.5v102v43.5t4.5 28t8 19t18.5 8t27.5 4.5h43.5h43.5t27.5 -4.5t18.5 -8t8 -19t4.5 -28v-43.5v-102v-43.5t-4.5 -28t-8 -19t-18.5 -8t-27.5 -4.5h-43.5h-43.5 t-27.5 4.5t-18.5 8t-8 19t-4.5 28zM614 614h1229v1229h-1229v-1229zM1843 58.5v43.5v103v43.5t4.5 27.5t8 18.5t19 8t28 4.5h43.5h43.5t28 -4.5t18.5 -7.5t7.5 -18.5t4.5 -28v-43.5v-103v-43.5t-4.5 -28t-7.5 -18.5t-18.5 -7.5t-28 -4.5h-43.5h-43.5t-28 4.5t-19 8t-8 18.5 t-4.5 27.5zM1843 2253v102q0 77 13.5 90t89.5 13h43.5t27.5 -4.5t18.5 -8t8 -19t4.5 -28v-43.5v-102v-43.5t-4.5 -28t-8 -19t-18.5 -8t-27.5 -4.5h-43.5q-76 0 -89.5 13t-13.5 90zM2150 468.5v43.5v43.5t4.5 27.5t8 18.5t19 8t28 4.5h43.5h102h43.5t28 -4.5t19 -8t8 -18.5 t4.5 -27.5v-43.5v-43.5t-4.5 -27.5t-8 -18.5t-19 -8t-28 -4.5h-43.5h-102h-43.5t-28 4.5t-19 8t-8 18.5t-4.5 27.5zM2150 1946v43.5t4.5 27.5t8 18.5t19 8t28 4.5h43.5h102h43.5t28 -4.5t19 -8t8 -18.5t4.5 -27.5v-43.5q0 -76 -13 -89.5t-90 -13.5h-102q-77 0 -90 13.5 t-13 89.5z" />
<glyph unicode="&#xe04f;" d="M0 1229q0 250 97.5 477.5t262 392t392 262t477.5 97.5t477.5 -97.5t392 -262t262 -392t97.5 -477.5t-97.5 -477.5t-262 -392t-392 -262t-477.5 -97.5t-477.5 97.5t-392 262t-262 392t-97.5 477.5zM205 1229q0 -209 81 -398.5t218 -326.5t326.5 -218t398.5 -81t398.5 81 t326.5 218t218 326.5t81 398.5t-81 398.5t-218 326.5t-326.5 218t-398.5 81t-398.5 -81t-326.5 -218t-218 -326.5t-81 -398.5zM819 1229q0 100 59 195.5t155 154.5t196 59t195.5 -59t154.5 -154.5t59 -195.5t-59 -196t-154.5 -155t-195.5 -59q-75 0 -150 35.5t-132 92.5 t-92.5 132t-35.5 150zM1126 1229q0 -43 30 -73t73 -30q39 0 70.5 31t31.5 72q0 43 -29.5 72.5t-72.5 29.5q-42 0 -72.5 -30t-30.5 -72z" />
<glyph unicode="&#xe050;" d="M0 1229l438 213l-272 401l483 -35l-35 486l404 -273l211 437l213 -437l401 273l-35 -486l486 35l-273 -401l437 -213l-437 -211l273 -404l-486 35l35 -483l-401 272l-213 -438l-211 438l-404 -272l35 483l-483 -35l272 404z" />
<glyph unicode="&#xe051;" d="M0 1229q0 250 97.5 477.5t262 392t392 262t477.5 97.5t477.5 -97.5t392 -262t262 -392t97.5 -477.5t-97.5 -477.5t-262 -392t-392 -262t-477.5 -97.5t-477.5 97.5t-392 262t-262 392t-97.5 477.5z" />
<glyph unicode="&#xe052;" d="M0 1229q0 200 62 388t175.5 339t264.5 264.5t339 175.5t388 62q250 0 474.5 -95t394.5 -265l1 1q128 -128 218 -297t123 -364v-2q1 -1 1 -2v-2v-2l1 -2v-3q11 -73 14 -142v-2q1 -2 1 -3v-4v-4v-4v-4v-4v-5v-4v-4l1 -1v-3v-4v-4v-4q0 -200 -62 -388t-175.5 -339 t-264.5 -264.5t-339 -175.5t-388 -62t-388 62t-339 175.5t-264.5 264.5t-175.5 339t-62 388zM1229 1229l724 724q-142 142 -329 221t-395 79v-1024z" />
<glyph unicode="&#xe053;" d="M0 1229q0 200 62 388t175.5 339t264.5 264.5t339 175.5t388 62t388 -62t339 -175.5t264.5 -264.5t175.5 -339t62 -388v-6v-3q0 -1 -0.5 -3.5t-0.5 -3.5v-2v-3v-3v-4q-4 -164 -50 -319.5t-125.5 -287t-191.5 -242t-245 -188t-290 -121t-322 -43.5h-4q-200 0 -388 62 t-339 175.5t-264.5 264.5t-175.5 339t-62 388zM1229 1229h1024q0 209 -81 398.5t-218 326.5t-326.5 218t-398.5 81v-1024z" />
<glyph unicode="&#xe054;" d="M0 1201v4v4v2v2v8v2v6v8v8v4v1v3v4q4 164 50 319.5t125.5 287t192 242t245.5 188t290 121t322 43.5h4q200 0 388 -62t339 -175.5t264.5 -264.5t175.5 -339t62 -388q0 -377 -207.5 -684t-544.5 -449q-223 -95 -470 -96h-3h-4h-4q-165 0 -322 43.5t-290 121t-245.5 188 t-192 242t-125.5 287t-50 319.5zM1229 1229h12l718 -718q139 141 216.5 326.5t77.5 391.5q0 209 -81 398.5t-218 326.5t-326.5 218t-398.5 81v-1024z" />
<glyph unicode="&#xe055;" d="M0 1229q0 200 62 388t175.5 339t264.5 264.5t339 175.5t388 62t388 -62t339 -175.5t264.5 -264.5t175.5 -339t62 -388t-62 -388t-175.5 -339t-264.5 -264.5t-339 -175.5t-388 -62t-388 62t-339 175.5t-264.5 264.5t-175.5 339t-62 388zM1229 205q209 0 398.5 81 t326.5 218t218 326.5t81 398.5t-81 398.5t-218 326.5t-326.5 218t-398.5 81v-2048z" />
<glyph unicode="&#xe056;" d="M0 1229v6v2q1 191 60 371v2l1 1q80 244 250 435.5t408.5 301t505.5 110.5h4q200 0 388 -62t339 -175.5t264.5 -264.5t175.5 -339t62 -388t-62 -388t-175.5 -339t-264.5 -264.5t-339 -175.5t-388 -62t-388 62t-339 175.5t-264.5 264.5t-175.5 339t-62 388zM501 509 q142 -144 330 -224t398 -80q209 0 398.5 81t326.5 218t218 326.5t81 398.5t-81 398.5t-218 326.5t-326.5 218t-398.5 81v-1024h-8z" />
<glyph unicode="&#xe057;" d="M0 1229v4q0 165 43.5 322t121 290t188 245t242 191.5t287 125.5t319.5 50h4h4h2l2 1h8h2h6q200 0 388 -62t339 -175.5t264.5 -264.5t175.5 -339t62 -388t-62 -388t-175.5 -339t-264.5 -264.5t-339 -175.5t-388 -62t-388 62t-339 175.5t-264.5 264.5t-175.5 339t-62 388z M205 1229q0 -209 81 -398.5t218 -326.5t326.5 -218t398.5 -81t398.5 81t326.5 218t218 326.5t81 398.5t-81 398.5t-218 326.5t-326.5 218t-398.5 81v-1024h-1024z" />
<glyph unicode="&#xe058;" d="M0 1229q0 290 126 542.5t345 424.5q155 126 350 194t408 68q200 0 388 -62t339 -175.5t264.5 -264.5t175.5 -339t62 -388t-62 -388t-175.5 -339t-264.5 -264.5t-339 -175.5t-388 -62t-388 62t-339 175.5t-264.5 264.5t-175.5 339t-62 388zM205 1229q0 -209 81 -398.5 t218 -326.5t326.5 -218t398.5 -81t398.5 81t326.5 218t218 326.5t81 398.5t-81 398.5t-218 326.5t-326.5 218t-398.5 81v-1024l-724 724q-142 -142 -221 -329t-79 -395z" />
<glyph unicode="&#xe059;" d="M0 1229q0 200 62 388t175.5 339t264.5 264.5t339 175.5t388 62t388 -62t339 -175.5t264.5 -264.5t175.5 -339t62 -388t-62 -388t-175.5 -339t-264.5 -264.5t-339 -175.5t-388 -62t-388 62t-339 175.5t-264.5 264.5t-175.5 339t-62 388zM205 1229q0 -209 81 -398.5 t218 -326.5t326.5 -218t398.5 -81t398.5 81t326.5 218t218 326.5t81 398.5t-81 398.5t-218 326.5t-326.5 218t-398.5 81t-398.5 -81t-326.5 -218t-218 -326.5t-81 -398.5z" />
<glyph unicode="&#xe05a;" d="M205 58.5v43.5v410v43.5t4.5 28t7.5 18.5t18.5 7.5t28 4.5h43.5h205h43.5t28 -4.5t18.5 -7.5t7.5 -18.5t4.5 -28v-43.5v-410v-43.5t-4.5 -28t-7.5 -18.5t-18.5 -7.5t-28 -4.5h-43.5h-205h-43.5t-28 4.5t-18.5 7.5t-7.5 18.5t-4.5 28zM819 58.5v43.5v820v43.5t4.5 27.5 t8 18.5t19 8t28 4.5h43.5h204h43.5t28 -4.5t19 -8t8 -18.5t4.5 -27.5v-43.5v-820v-43.5t-4.5 -27.5t-8 -18.5t-19 -8t-28 -4.5h-43.5h-204h-43.5t-28 4.5t-19 8t-8 18.5t-4.5 27.5zM1434 58.5v43.5v1639v43.5t4.5 28t7.5 18.5t18.5 7.5t28 4.5h43.5h205q77 0 89.5 -12.5 t12.5 -89.5v-1639v-43.5t-4.5 -28t-7.5 -18.5t-18.5 -7.5t-28 -4.5h-43.5h-205h-43.5t-28 4.5t-18.5 7.5t-7.5 18.5t-4.5 28zM2048 58.5v43.5v2253v43.5t4.5 28t8 19t18.5 8t27.5 4.5h43.5h205q77 0 90 -13t13 -90v-2253v-43.5t-4.5 -27.5t-8 -18.5t-19 -8t-28 -4.5h-43.5 h-205h-43.5t-28 4.5t-18.5 7.5t-7.5 18.5t-4.5 28z" />
<glyph unicode="&#xe05b;" d="M-32 1228.5q0 5.5 9.5 23t20 27.5t37.5 38l177 178l37.5 37.5t27.5 20t23 9.5t23 -9.5t28 -20t38 -37.5l530 -531l1151 1150l37.5 37.5t27.5 20t22.5 9.5t23 -9.5t27.5 -20t38 -37.5l177 -177l38 -38t20.5 -28t9.5 -23t-9.5 -23t-20.5 -27.5t-38 -37.5l-1415 -1415 l-38 -38t-28 -20.5t-23 -9.5t-23 9.5t-27.5 20.5t-37.5 38l-796 796l-37.5 37.5t-20 27.5t-9.5 22.5z" />
<glyph unicode="&#xe05c;" d="M333 1654q0 9 27 36t36 27t36 -27l797 -797l796 797q27 27 36.5 27t36.5 -27t27 -36t-27 -36l-869 -869l-869 869q-27 27 -27 36z" />
<glyph unicode="&#xe05d;" d="M303 1644q0 5 7.5 19t16.5 22.5t31 30.5l31 31t23 17t19 8t19 -8t22.5 -17t30.5 -31l724 -724l727 728l31 31t23 16.5t19 7.5t19 -7.5t22.5 -16.5t30.5 -31l31 -31t17 -23t8 -19t-8 -19t-17 -22.5t-31 -30.5l-872 -872l-869 869q-22 22 -31 30.5t-16.5 22.5t-7.5 19z" />
<glyph unicode="&#xe05e;" d="M286.5 1615q-9.5 21 0.5 44.5t23.5 39t47.5 49.5q28 28 40.5 39.5t33 25t34.5 12.5t33 -9.5t41 -30.5l687 -688l691 691q26 26 47 35.5t44.5 -0.5t40 -24t49.5 -47q23 -23 33.5 -34t24 -28.5t15.5 -28.5t1.5 -26.5t-10.5 -30.5t-28 -33l-908 -908l-905 905 q-26 26 -35.5 47z" />
<glyph unicode="&#xe05f;" d="M256 1648.5q4 18.5 23.5 45.5t33.5 42t43 44q36 36 56 53.5t51 35.5t57.5 13.5t52.5 -30.5l655 -655l652 652q21 21 44 26.5t41.5 1.5t45.5 -23.5t42 -33.5t44 -43t43.5 -44.5t33.5 -42t23 -45t-1 -41.5t-26 -44l-942 -942l-944 945q-21 21 -26.5 44t-1.5 41.5z" />
<glyph unicode="&#xe060;" d="M195 1575.5q-3 23.5 10 51.5t28 52t42.5 55.5t43.5 48.5t41 42q26 26 42.5 41.5t48 43.5t55.5 42.5t52 27.5t51.5 10t40.5 -20l579 -579l579 579q17 17 40.5 20t51.5 -10t52 -27.5t55.5 -42.5t48 -43.5t42.5 -41.5q25 -25 41 -42t43.5 -48.5t42.5 -55.5t28 -52t10 -51.5 t-20 -40.5l-1014 -1013l-1014 1013q-17 17 -20 40.5z" />
<glyph unicode="&#xe061;" d="M744 1233l869 869q27 27 36.5 27t36.5 -27t27 -36t-27 -36l-797 -797l797 -796q27 -27 27 -36t-27 -36t-36.5 -27t-36.5 27z" />
<glyph unicode="&#xe062;" d="M693 1239l869 869q22 22 30.5 31t22.5 16.5t19 7.5t19 -7.5t22.5 -16.5t30.5 -31l31 -31t17 -23t8 -19t-8 -19t-17 -22.5t-31 -30.5l-724 -724l728 -727q22 -23 30.5 -31t16.5 -22.5t8 -19t-8 -18.5t-16.5 -22.5l-30.5 -30.5l-31 -31t-23 -17t-19 -8t-19 8t-22.5 17 t-30.5 31z" />
<glyph unicode="&#xe063;" d="M646 1247l905 905q26 26 47 35.5t44.5 -0.5t40 -24t49.5 -47q28 -28 39.5 -41t25 -33t12.5 -34t-10 -33t-31 -41l-687 -687l691 -692q26 -26 35.5 -47t-0.5 -44.5t-23.5 -39t-47.5 -49.5t-50 -47.5t-39.5 -24t-44.5 -1t-48 35.5z" />
<glyph unicode="&#xe064;" d="M595 1249l944 944q21 21 44.5 26.5t42 1.5t45 -23t42.5 -34t44 -43q36 -36 53.5 -56t35.5 -51t13.5 -57.5t-30.5 -52.5l-655 -655l652 -652q21 -21 26.5 -44.5t1.5 -41.5t-24 -45t-34 -42t-43 -44t-44.5 -43.5t-42 -33.5t-45 -23t-41.5 1t-44 26z" />
<glyph unicode="&#xe065;" d="M495 1255l1014 1014q17 17 40.5 20t51.5 -10t51.5 -27.5t55 -42.5t48 -43.5t42.5 -41.5t41.5 -42.5t43.5 -48t42.5 -55.5t27.5 -52t10 -51.5t-20 -40.5l-579 -579l579 -579q17 -17 20 -40.5t-10 -51.5t-27.5 -52t-42.5 -55.5t-43.5 -48t-41.5 -42.5q-25 -25 -42 -41 t-48 -43.5t-55 -42t-52 -27.5t-51.5 -10t-40.5 20z" />
<glyph unicode="&#xe066;" d="M745 401q0 9 27 36l797 796l-797 797q-27 27 -27 36t27 36t36 27t36 -27l869 -869l-869 -868q-27 -27 -36 -27t-36 27t-27 36z" />
<glyph unicode="&#xe067;" d="M693 2036q0 5 7.5 19t16.5 22.5t31 30.5q23 23 31 31.5t22.5 16.5t19 8t18.5 -8t22.5 -16.5t30.5 -31.5l872 -872l-869 -868q-22 -22 -30.5 -31t-22.5 -16.5t-19 -7.5t-19 7.5t-22.5 16.5t-30.5 31q-23 23 -31.5 31t-16.5 22.5t-8 19t8 18.5t16.5 22.5t31.5 30.5l724 724 l-727 727l-31 31t-16.5 23t-7.5 19z" />
<glyph unicode="&#xe068;" d="M645.5 2008q-0.5 14 12.5 34.5t25 33.5t39 40q23 23 34 33.5t28.5 24t28.5 15.5t26.5 1.5t30.5 -10.5t33 -28l908 -908l-905 -906q-21 -21 -40 -30t-33 -9.5t-34.5 12.5t-33.5 25t-40 39q-24 24 -33.5 34.5t-23.5 28t-16 28.5t-1.5 26.5t10.5 30.5t28 33l688 688 l-692 691q-21 21 -30 40t-9.5 33z" />
<glyph unicode="&#xe069;" d="M594.5 543.5q4.5 26.5 30.5 52.5l655 655l-652 652q-21 21 -26.5 44t-1.5 41.5t23.5 45.5t33.5 42t43 44t44.5 43.5t42 33.5t45.5 23.5t42 -1t44 -26.5l941 -942l-945 -944q-21 -21 -44 -26.5t-41.5 -1.5t-45.5 23.5t-42 33.5t-44 43q-36 36 -53.5 56t-35.5 51 t-13.5 57.5z" />
<glyph unicode="&#xe06a;" d="M494 635.5q3 23.5 20 40.5l580 579l-580 579q-17 17 -20 40.5t10 51.5t27.5 52t42.5 55.5t43.5 48t41.5 42.5q25 25 42 41t48.5 43.5t55.5 42.5t52 28t51.5 10t40.5 -20l1013 -1014l-1013 -1013q-17 -17 -40.5 -20t-51.5 10t-52.5 27.5t-55 41.5t-48 43.5t-42.5 41.5 q-26 26 -41.5 42.5t-43.5 48t-42.5 55.5t-27.5 52t-10 51.5z" />
<glyph unicode="&#xe06b;" d="M333 813q0 9 27 36l869 869l869 -869q27 -27 27 -36t-27 -36t-36.5 -27t-36.5 27l-796 796l-797 -796q-27 -27 -36 -27t-36 27t-27 36z" />
<glyph unicode="&#xe06c;" d="M302 829q0 5 8 19t17 22.5t31 30.5l872 872l869 -869q22 -22 31 -30.5t16.5 -22.5t7.5 -19t-7.5 -19t-16.5 -22.5t-31 -30.5l-31 -31t-23 -17t-19 -8t-19 8t-22.5 17t-30.5 31l-724 724l-727 -728l-31 -31t-23 -16.5t-19 -7.5t-19 7.5t-22.5 16.5t-30.5 31l-31 31t-17 23 t-8 19z" />
<glyph unicode="&#xe06d;" d="M283.5 856.5q0.5 15.5 10.5 30.5t28 33l908 908l906 -905q21 -21 30 -40t9.5 -33t-12.5 -34.5t-25 -33.5t-39 -40q-24 -24 -34.5 -33.5t-28 -23.5t-28.5 -16t-26.5 -1.5t-30.5 10.5t-33 28l-688 687l-691 -691q-26 -26 -47 -35.5t-44.5 0.5t-40 24t-49.5 47 q-23 23 -33.5 34.5t-24 28.5t-15.5 28.5t-1.5 27z" />
<glyph unicode="&#xe06e;" d="M256.5 855q-4.5 19 1 42t26.5 44l942 941l944 -945q21 -21 26.5 -44t1.5 -41.5t-23.5 -45.5t-33.5 -42t-43 -44q-36 -36 -56 -53.5t-51 -35.5t-57.5 -13.5t-52.5 30.5l-655 655l-652 -652q-21 -21 -44 -26.5t-41.5 -1.5t-45.5 23.5t-42 33.5t-44 43t-43.5 44.5t-33.5 42 t-23.5 45.5z" />
<glyph unicode="&#xe06f;" d="M195 934.5q3 23.5 20 40.5l1014 1014l1014 -1014q17 -17 20 -40.5t-10 -51.5t-27.5 -51.5t-42.5 -55t-43.5 -48t-41.5 -42.5t-42.5 -41.5t-48 -43.5t-55.5 -42.5t-52 -27.5t-51.5 -10t-40.5 20l-579 579l-579 -579q-17 -17 -40.5 -20t-51.5 10t-52 27.5t-55.5 42.5 t-48 43.5t-42.5 41.5t-41.5 42.5t-43.5 48t-42.5 55t-27.5 51.5t-10 51.5z" />
<glyph unicode="&#xe070;" d="M0 1229q0 250 97.5 477.5t262 392t392 262t477.5 97.5t477.5 -97.5t392 -262t262 -392t97.5 -477.5t-97.5 -477.5t-262 -392t-392 -262t-477.5 -97.5t-477.5 97.5t-392 262t-262 392t-97.5 477.5zM102 1229q0 -226 90.5 -434.5t242 -360t360 -242t434.5 -90.5 q151 0 296.5 41t268.5 114.5t228 178t178 228t114 269t41 296.5q0 226 -90.5 434.5t-241.5 359.5t-359.5 241.5t-434.5 90.5q-151 0 -296.5 -41t-269 -114t-228 -178t-178 -228t-114.5 -268.5t-41 -296.5z" />
<glyph unicode="&#xe071;" d="M0 1229q0 200 62 388t175.5 339t264.5 264.5t339 175.5t388 62t388 -62t339 -175.5t264.5 -264.5t175.5 -339t62 -388t-62 -388t-175.5 -339t-264.5 -264.5t-339 -175.5t-388 -62t-388 62t-339 175.5t-264.5 264.5t-175.5 339t-62 388zM205 1229q0 -209 81 -398.5 t218 -326.5t326.5 -218t398.5 -81t398.5 81t326.5 218t218 326.5t81 398.5t-81 398.5t-218 326.5t-326.5 218t-398.5 81t-398.5 -81t-326.5 -218t-218 -326.5t-81 -398.5z" />
<glyph unicode="&#xe072;" d="M0 1229q0 245 99 472t265 393t393 265t472 99t472 -99t393 -265t265 -393t99 -472t-99 -472t-265 -393t-393 -265t-472 -99t-472 99t-393 265t-265 393t-99 472zM307 1229q0 -189 72.5 -359.5t196 -294t294 -196t359.5 -72.5t359.5 72.5t293.5 196t195.5 294t72.5 359.5 t-72.5 359.5t-195.5 293.5t-293.5 195.5t-359.5 72.5t-359.5 -72.5t-294 -195.5t-196 -293.5t-72.5 -359.5z" />
<glyph unicode="&#xe073;" d="M0 1229q0 250 97.5 477.5t262 392t392 262t477.5 97.5t477.5 -97.5t392 -262t262 -392t97.5 -477.5t-97.5 -477.5t-262 -392t-392 -262t-477.5 -97.5t-477.5 97.5t-392 262t-262 392t-97.5 477.5zM410 1229q0 -166 65 -318t174.5 -261.5t261.5 -174.5t318 -65t318 65 t261.5 174.5t174.5 261.5t65 318t-65 318t-174.5 261.5t-261.5 174.5t-318 65t-318 -65t-261.5 -174.5t-174.5 -261.5t-65 -318z" />
<glyph unicode="&#xe074;" d="M0 1229q0 245 99 472t265 393t393 265t472 99t472 -99t393 -265t265 -393t99 -472t-99 -472t-265 -393t-393 -265t-472 -99t-472 99t-393 265t-265 393t-99 472zM614 1229q0 -167 82.5 -308.5t224 -224t308.5 -82.5q125 0 238.5 49t196 131t131 196t48.5 239t-48.5 238.5 t-131 196t-196 131t-238.5 48.5t-239 -48.5t-196 -131t-131 -196t-49 -238.5z" />
<glyph unicode="&#xe075;" d="M0 1229q0 245 99 472t265 393t393 265t472 99t472 -99t393 -265t265 -393t99 -472t-99 -472t-265 -393t-393 -265t-472 -99t-472 99t-393 265t-265 393t-99 472zM498 1167.5q0 -4.5 8 -19t16.5 -23t30.5 -31.5l446 -445q22 -22 30.5 -31t23 -16.5t19 -7.5t19 7.5t23 16.5 t31.5 31l807 807q22 23 31 31.5t16.5 23t7.5 19t-7.5 19t-16.5 23t-31 30.5l-146 145q-23 23 -30.5 31t-22.5 16.5t-19 8t-18.5 -7.5t-23.5 -16.5t-31 -31.5l-590 -592l-227 229q-21 21 -30.5 31t-23 17t-19 7.5t-19.5 -7.5t-23 -17l-31 -31l-145 -145l-30.5 -30.5 t-16.5 -22.5t-8 -18.5z" />
<glyph unicode="&#xe076;" d="M0 1229q0 245 99 472t265 393t393 265t472 99t472 -99t393 -265t265 -393t99 -472t-99 -472t-265 -393t-393 -265t-472 -99t-472 99t-393 265t-265 393t-99 472zM614 1229l615 -615l614 615h-409v409q0 76 -13 89.5t-90 13.5h-205h-43.5t-27.5 -4.5t-18.5 -8t-8 -19 t-4.5 -28v-43.5v-409h-410z" />
<glyph unicode="&#xe077;" d="M0 1536q0 189 72.5 359.5t196 294t294 196t359.5 72.5q206 0 388 -84t309.5 -232.5t184.5 -337.5q189 -57 337.5 -184.5t232.5 -309.5t84 -388q0 -189 -72.5 -359.5t-196 -294t-294 -196t-359.5 -72.5q-311 0 -554 182.5t-329 470.5q-288 86 -470.5 329t-182.5 554z M717 846q0 -69 8 -121q52 -8 121 -8q184 0 349.5 70.5t285 190t190 286t70.5 350.5q0 67 -8 119q-52 8 -119 8q-184 0 -350.5 -70.5t-286 -190t-190 -285t-70.5 -349.5z" />
<glyph unicode="&#xe078;" d="M0 1229q0 245 99 472t265 393t393 265t472 99t472 -99t393 -265t265 -393t99 -472t-99 -472t-265 -393t-393 -265t-472 -99t-472 99t-393 265t-265 393t-99 472zM1024 468.5q0 -12.5 4.5 -28t7.5 -18.5t18.5 -7.5t28 -4.5h43.5h205h43.5t28 4.5t19 8t8 18.5t4.5 27.5 v43.5v819q0 77 -13 90t-90 13h-205h-43.5t-27.5 -4.5t-18.5 -8t-8 -19t-4.5 -28v-43.5v-819v-43.5zM1024 1697.5q0 -12.5 4.5 -28t8 -19t18.5 -8t27.5 -4.5h43.5h205q77 0 90 13t13 90v205v43.5t-4.5 27.5t-8 18.5t-19 8t-28 4.5h-43.5h-205h-43.5t-28 -4.5t-18.5 -7.5 t-7.5 -18.5t-4.5 -28v-43.5v-205v-43.5z" />
<glyph unicode="&#xe079;" d="M0 1536q0 189 72.5 359.5t196 294t294 196t359.5 72.5q206 0 388 -84t309.5 -232.5t184.5 -337.5q189 -57 337.5 -184.5t232.5 -309.5t84 -388q0 -189 -72.5 -359.5t-196 -294t-294 -196t-359.5 -72.5q-311 0 -554 182.5t-329 470.5q-288 86 -470.5 329t-182.5 554z M205 1536q0 -214 112 -388t298 -261l-1 35q0 189 72.5 359.5t196 293.5t294 195.5t359.5 72.5h35q-87 186 -261 298t-388 112q-196 0 -361 -95.5t-260.5 -260.5t-95.5 -361zM887 615q87 -186 261 -298t388 -112q196 0 361 95.5t260.5 260.5t95.5 361q0 214 -112 388 t-298 261v-35q0 -189 -72.5 -359.5t-195.5 -294t-293.5 -196t-359.5 -72.5z" />
<glyph unicode="&#xe07a;" d="M0 1229q0 245 99 472t265 393t393 265t472 99t472 -99t393 -265t265 -393t99 -472t-99 -472t-265 -393t-393 -265t-472 -99t-472 99t-393 265t-265 393t-99 472zM614 1229l615 -615v410h409h43.5t28 4.5t19 8t8 18.5t4.5 27.5v43.5v205q0 77 -13.5 90t-89.5 13h-409v409z " />
<glyph unicode="&#xe07b;" d="M0 1229q0 250 97.5 477.5t262 392t392 262t477.5 97.5t477.5 -97.5t392 -262t262 -392t97.5 -477.5t-97.5 -477.5t-262 -392t-392 -262t-477.5 -97.5t-477.5 97.5t-392 262t-262 392t-97.5 477.5zM614 1082.5q0 -12.5 4.5 -27.5t8 -18.5t19 -8t28 -4.5h43.5h1024h43.5 t28 4.5t18.5 7.5t7.5 18.5t4.5 28v43.5v205v43.5t-4.5 28t-8 19t-18.5 8t-27.5 4.5h-43.5h-1024q-77 0 -90 -13t-13 -90v-205v-43.5z" />
<glyph unicode="&#xe07c;" d="M0 1229q0 245 99 472t265 393t393 265t472 99t472 -99t393 -265t265 -393t99 -472t-99 -472t-265 -393t-393 -265t-472 -99t-472 99t-393 265t-265 393t-99 472zM614 1082.5q0 -12.5 4.5 -27.5t8 -18.5t19 -8t28 -4.5h43.5h307v-307v-43.5t4.5 -28t8 -19t18.5 -8 t27.5 -4.5h43.5h205q77 0 90 13t13 90v307h307h43.5t28 4.5t18.5 7.5t7.5 18.5t4.5 28v43.5v205v43.5t-4.5 28t-8 19t-18.5 8t-27.5 4.5h-43.5h-307v307v43.5t-4.5 27.5t-8 18.5t-19 8t-28 4.5h-43.5h-205h-43.5t-28 -4.5t-18.5 -7.5t-7.5 -18.5t-4.5 -28v-43.5v-307h-307 q-77 0 -90 -13t-13 -90v-205v-43.5z" />
<glyph unicode="&#xe07d;" d="M0 1229q0 245 99 472t265 393t393 265t472 99t472 -99t393 -265t265 -393t99 -472t-99 -472t-265 -393t-393 -265t-472 -99t-472 99t-393 265t-265 393t-99 472zM735 1483h348q-9 118 29.5 182t122.5 64q137 0 137 -156q0 -51 -18.5 -95.5t-47.5 -78.5t-64.5 -67t-71 -70 t-64.5 -78.5t-47.5 -101t-18.5 -130.5v-45h373q0 49 18 90.5t46.5 73.5t63 65t69 73t63 87.5t46.5 118.5t18 158q0 229 -143.5 372.5t-358.5 143.5q-158 0 -281.5 -84t-181.5 -223.5t-37 -298.5zM1022 551q0 -78 62.5 -140.5t144.5 -62.5q81 0 142 62.5t61 140.5 q0 85 -61 146t-142 61t-144 -61t-63 -146z" />
<glyph unicode="&#xe07e;" d="M0 1229q0 245 99 472t265 393t393 265t472 99t472 -99t393 -265t265 -393t99 -472t-99 -472t-265 -393t-393 -265t-472 -99t-472 99t-393 265t-265 393t-99 472zM594 866.5q0 -4.5 8 -18.5t16.5 -22.5l30.5 -30.5l146 -146l30.5 -30.5t22.5 -16.5t18.5 -8t19 8t23 16.5 t31.5 30.5l289 291l289 -291q23 -22 31.5 -30.5t23 -16.5t19 -8t18.5 8t22.5 16.5l30.5 30.5l145 146l30.5 30.5t16.5 22.5t8 18.5t-8 19t-16.5 23t-30.5 31.5l-290 289l290 289q22 23 30.5 31.5t16.5 23t8 19t-8 18.5t-16.5 22.5l-30.5 30.5l-145 145l-30.5 30.5 t-22.5 16.5t-18.5 8t-19 -8t-23 -16.5t-31.5 -30.5l-289 -290l-289 290q-23 22 -31.5 30.5t-23 16.5t-19 8t-18.5 -8t-22.5 -16.5l-30.5 -30.5l-146 -145l-30.5 -30.5t-16.5 -22.5t-8 -18.5t8 -19t16.5 -23t30.5 -31.5l291 -289l-291 -289q-22 -23 -30.5 -31.5t-16.5 -23 t-8 -19z" />
<glyph unicode="&#xe07f;" d="M0 1229q0 245 99 472t265 393t393 265t472 99t472 -99t393 -265t265 -393t99 -472t-99 -472t-265 -393t-393 -265t-472 -99t-472 99t-393 265t-265 393t-99 472zM717 1082.5q0 -12.5 4.5 -28t7.5 -18.5t18.5 -7.5t28 -4.5h43.5h410v-410l614 615l-614 614v-409h-410 h-43.5t-27.5 -4.5t-18.5 -8t-8 -19t-4.5 -28v-43.5v-205v-43.5z" />
<glyph unicode="&#xe080;" d="M0 1536q0 189 72.5 359.5t196 294t294 196t359.5 72.5q206 0 388 -84t309.5 -232.5t184.5 -337.5q189 -57 337.5 -184.5t232.5 -309.5t84 -388q0 -189 -72.5 -359.5t-196 -294t-294 -196t-359.5 -72.5q-311 0 -554 182.5t-329 470.5q-288 86 -470.5 329t-182.5 554z M819 922q0 -196 95.5 -361t260.5 -260.5t361 -95.5t361 95.5t260.5 260.5t95.5 361q0 202 -93 366t-257.5 257t-366.5 93q-196 0 -361 -95t-260.5 -260t-95.5 -361zM922 512q109 0 225 25l-23 100l-202 -23v-102zM1300 694l177 103l61 -82q-94 -69 -197 -115zM1612 922 l116 168l91 -50q-55 -101 -131 -186zM1802 1257l37 201l102 -8q-9 -115 -43 -221z" />
<glyph unicode="&#xe081;" d="M0 1536q0 189 72.5 359.5t196 294t294 196t359.5 72.5q277 0 502.5 -147.5t334.5 -389.5l-63 12l-17 -100l125 -29l33 -162l102 13q-6 50 -18 104q242 -109 389.5 -334.5t147.5 -502.5q0 -189 -72.5 -359.5t-196 -294t-294 -196t-359.5 -72.5q-277 0 -503 147.5 t-335 389.5l64 -13l16 101l-125 28l-32 162l-103 -12q5 -44 19 -105q-242 109 -389.5 335t-147.5 503zM516 1008l102 -9l37 201l-96 29q-34 -106 -43 -221zM639 1417l90 -49l117 168l-76 68q-75 -83 -131 -187zM920 1743l61 -84l176 104l-41 95q-100 -44 -196 -115zM922 512 q109 0 225 25l-23 100l-202 -23v-102zM1300 694l41 -94q103 46 197 115l-61 82zM1311 1921l22 -100l203 22v103q-109 0 -225 -25zM1612 922l76 -68q76 85 131 186l-90 50zM1802 1257l96 -28q35 110 44 221l-103 8z" />
<glyph unicode="&#xe082;" d="M0 1229q0 245 99 472t265 393t393 265t472 99t472 -99t393 -265t265 -393t99 -472t-99 -472t-265 -393t-393 -265t-472 -99t-472 99t-393 265t-265 393t-99 472zM614 1229h410v-410v-43.5t4.5 -28t7.5 -18.5t18.5 -7.5t28 -4.5h43.5h205h43.5t28 4.5t19 8t8 18.5 t4.5 27.5v43.5v410h409l-614 614z" />
<glyph unicode="&#xe083;" d="M0 1229q0 245 99 472t265 393t393 265t472 99t472 -99t393 -265t265 -393t99 -472t-99 -472t-265 -393t-393 -265t-472 -99t-472 99t-393 265t-265 393t-99 472zM1024 468.5q0 -12.5 4.5 -28t7.5 -18.5t18.5 -7.5t28 -4.5h43.5h205h43.5t28 4.5t19 8t8 18.5t4.5 27.5 v43.5v205v43.5t-4.5 27.5t-8 18.5t-19 8t-28 4.5h-43.5h-205h-43.5t-28 -4.5t-18.5 -7.5t-7.5 -18.5t-4.5 -28v-43.5v-205v-43.5zM1024 1082.5q0 -12.5 4.5 -28t7.5 -18.5t18.5 -7.5t28 -4.5h43.5h205h43.5t28 4.5t19 8t8 18.5t4.5 27.5v43.5v820v43.5t-4.5 27.5t-8 18.5 t-19 8t-28 4.5h-43.5h-205h-43.5t-28 -4.5t-18.5 -7.5t-7.5 -18.5t-4.5 -28v-43.5v-820v-43.5z" />
<glyph unicode="&#xe084;" d="M0 1229q0 200 62 388t175.5 339t264.5 264.5t339 175.5t388 62t388 -62t339 -175.5t264.5 -264.5t175.5 -339t62 -388t-62 -388t-175.5 -339t-264.5 -264.5t-339 -175.5t-388 -62t-388 62t-339 175.5t-264.5 264.5t-175.5 339t-62 388zM205 1229q0 -209 81 -398.5 t218 -326.5t326.5 -218t398.5 -81t398.5 81t326.5 218t218 326.5t81 398.5t-81 398.5t-218 326.5t-326.5 218t-398.5 81t-398.5 -81t-326.5 -218t-218 -326.5t-81 -398.5zM1124.5 1195q0.5 13 1.5 34l21 727q3 44 19.5 73.5t39.5 36.5t45.5 0t39.5 -36.5t20 -73.5l20 -625 l481 -41q32 -3 56.5 -13.5t37.5 -25t19 -31.5t0 -33.5t-19 -30t-37.5 -22t-56.5 -8.5h-583h-34t-25.5 2t-19.5 3.5t-12.5 7.5t-9 12.5t-3 18.5t-1 25z" />
<glyph unicode="&#xe085;" d="M0 1126q0 156 85.5 284t224.5 187q15 181 113.5 331.5t257.5 237.5t343 87q218 0 396 -119t262 -312q76 21 161 21q125 0 239 -48.5t196 -131t131 -196t49 -238.5q0 -167 -82.5 -308.5t-224 -224t-308.5 -82.5h-205v205h205q170 0 290 120t120 290t-120 289.5t-290 119.5 q-35 0 -70.5 -3.5t-59.5 -7.5t-56.5 -13t-45 -13t-43 -14.5t-33.5 -11.5q-17 201 -163.5 337t-347.5 136q-155 0 -282.5 -84.5t-189 -227t-30.5 -301.5q-134 0 -225.5 -90t-91.5 -219q0 -128 89.5 -217.5t217.5 -89.5h307v-205h-307q-212 0 -362 150t-150 362zM796 410h279 v819v43.5t4.5 27.5t8 18.5t19 8t28 4.5h43.5h102h43.5t28 -4.5t18.5 -7.5t7.5 -18.5t4.5 -28v-43.5v-819h280l-433 -512z" />
<glyph unicode="&#xe086;" d="M0 1126q0 156 85.5 284t224.5 187q15 181 113.5 331.5t257.5 237.5t343 87q218 0 396 -119t262 -312q76 21 161 21q125 0 239 -48.5t196 -131t131 -196t49 -238.5q0 -167 -82.5 -308.5t-224 -224t-308.5 -82.5h-205v205h205q170 0 290 120t120 290t-120 289.5t-290 119.5 q-35 0 -70.5 -3.5t-59.5 -7.5t-56.5 -13t-45 -13t-43 -14.5t-33.5 -11.5q-17 201 -163.5 337t-347.5 136q-155 0 -282.5 -84.5t-189 -227t-30.5 -301.5q-134 0 -225.5 -90t-91.5 -219q0 -128 89.5 -217.5t217.5 -89.5h307v-205h-307q-212 0 -362 150t-150 362zM796 1024 l433 512l433 -512h-228v-717v-43.5t-4.5 -27.5t-8 -18.5t-19 -8t-28 -4.5h-43.5h-205h-43.5t-28 4.5t-18.5 7.5t-7.5 18.5t-4.5 28v43.5v717h-228z" />
<glyph unicode="&#xe087;" d="M0 878.5v43.5v614v43.5t4.5 28t7.5 18.5t18.5 7.5t28 4.5h43.5h1024h43.5t28 -4.5t19 -8t8 -18.5t4.5 -27.5v-43.5v-614v-44t-4.5 -28t-8 -18.5t-18.5 -8t-28 -4.5h-44h-1024h-43.5t-27.5 4.5t-18.5 8t-8 19t-4.5 28zM410 58.5v43.5v410v43.5t4.5 28t7.5 18.5t18.5 7.5 t28 4.5h43.5h614h43.5t28 -4.5t19 -8t8 -18.5t4.5 -27.5v-43.5v-410v-43.5t-4.5 -27.5t-8 -18.5t-19 -8t-28 -4.5h-43.5h-614h-43.5t-28 4.5t-18.5 7.5t-7.5 18.5t-4.5 28zM614 1946v204q0 76 13 89.5t90 13.5h409h44t28 -4.5t18.5 -8t8 -18.5t4.5 -28v-44v-204v-44 t-4.5 -28t-8 -18.5t-18.5 -8t-28 -4.5h-44h-409q-77 0 -90 13.5t-13 89.5zM1434 263.5v43.5v819v43.5t4.5 28t8 19t18.5 8t27.5 4.5h43.5h819q77 0 90 -13.5t13 -89.5v-819v-43.5t-4.5 -27.5t-8 -18.5t-19 -8t-28 -4.5h-43.5h-819h-43.5t-28 4.5t-18.5 7.5t-7.5 18.5 t-4.5 28zM1434 1492.5v43.5v410v43.5t4.5 28t7.5 18.5t18.5 7.5t28 4.5h43.5h614h43.5t28 -4.5t19 -8t8 -18.5t4.5 -27.5v-43.5v-410v-43.5t-4.5 -27.5t-8 -18.5t-19 -8t-28 -4.5h-43.5h-614h-43.5t-28 4.5t-18.5 7.5t-7.5 18.5t-4.5 28z" />
<glyph unicode="&#xe088;" d="M0 1075v307l342 96q30 107 83 202l-174 309l217 217l310 -173q96 54 201 83l96 342h307l96 -342q107 -30 202 -83l309 173l217 -217l-173 -309q53 -95 83 -202l342 -96v-307l-342 -96q-28 -101 -84 -201l174 -309l-217 -218l-309 174q-95 -53 -202 -83l-96 -342h-307 l-96 342q-105 29 -201 83l-310 -174l-217 218l174 309q-54 96 -83 201zM819 1229q0 -169 120.5 -289.5t289.5 -120.5t289 120t120 290q0 169 -120 289t-289 120q-170 0 -290 -120t-120 -289z" />
<glyph unicode="&#xe089;" d="M0 58.5v43.5v2048v43.5t4.5 28t8 19t18.5 8t27.5 4.5h43.5h256h44t28 -4.5t18.5 -8t8 -18.5t4.5 -28v-44v-2048v-43.5t-4.5 -27.5t-8 -18.5t-19 -8t-28 -4.5h-43.5h-256h-43.5t-28 4.5t-18.5 7.5t-7.5 18.5t-4.5 28zM666 58.5v43.5v2048v43.5t4.5 28t8 19t18.5 8 t27.5 4.5h43.5h256h43.5t27.5 -4.5t18.5 -8t8 -19t4.5 -28v-43.5v-2048v-43.5t-4.5 -28t-7.5 -18.5t-18.5 -7.5t-28 -4.5h-43.5h-256h-43.5t-28 4.5t-18.5 7.5t-7.5 18.5t-4.5 28zM1331 58.5v43.5v2048v44t4.5 28t8 18.5t18.5 8t28 4.5h44h256h43.5t27.5 -4.5t18.5 -8t8 -19 t4.5 -28v-43.5v-2048v-43.5t-4.5 -28t-7.5 -18.5t-18.5 -7.5t-28 -4.5h-43.5h-256h-43.5t-28 4.5t-19 8t-8 18.5t-4.5 27.5zM1997 58.5v43.5v2048v43.5t4.5 28t8 19t18.5 8t27.5 4.5h43.5h256q77 0 90 -13.5t13 -89.5v-2048v-43.5t-4.5 -27.5t-8 -18.5t-19 -8t-28 -4.5 h-43.5h-256h-43.5t-28 4.5t-18.5 7.5t-7.5 18.5t-4.5 28z" />
<glyph unicode="&#xe08a;" d="M0 58.5v43.5v2048v43.5t4.5 28t8 19t18.5 8t27.5 4.5h43.5h461q77 0 90 -13.5t13 -89.5v-2048v-43.5t-4.5 -27.5t-8 -18.5t-19 -8t-28 -4.5h-43.5h-461h-43.5t-28 4.5t-18.5 7.5t-7.5 18.5t-4.5 28zM870 58.5v43.5v2048q0 76 13 89.5t90 13.5h512h43.5t27.5 -4.5t18.5 -8 t8 -19t4.5 -28v-43.5v-2048v-43.5t-4.5 -28t-7.5 -18.5t-18.5 -7.5t-28 -4.5h-43.5h-512h-43.5t-28 4.5t-19 8t-8 18.5t-4.5 27.5zM1792 58.5v43.5v2048v43.5t4.5 28t8 19t18.5 8t27.5 4.5h43.5h461q77 0 90 -13.5t13 -89.5v-2048v-43.5t-4.5 -27.5t-8 -18.5t-19 -8 t-28 -4.5h-43.5h-461h-43.5t-28 4.5t-18.5 7.5t-7.5 18.5t-4.5 28z" />
<glyph unicode="&#xe08b;" d="M0 1229q0 200 62 388t175.5 339t264.5 264.5t339 175.5t388 62t388 -62t339 -175.5t264.5 -264.5t175.5 -339t62 -388t-62 -388t-175.5 -339t-264.5 -264.5t-339 -175.5t-388 -62t-388 62t-339 175.5t-264.5 264.5t-175.5 339t-62 388zM205 1229q0 -209 81 -398.5 t218 -326.5t326.5 -218t398.5 -81t398.5 81t326.5 218t218 326.5t81 398.5t-81 398.5t-218 326.5t-326.5 218t-398.5 81t-398.5 -81t-326.5 -218t-218 -326.5t-81 -398.5zM666 666q42 339 95 532.5t161 337.5q144 108 337.5 161t532.5 95q-42 -339 -95 -532.5t-161 -337.5 q-144 -108 -337.5 -161t-532.5 -95zM1075 1382l307 -307q154 154 154 461q-307 0 -461 -154z" />
<glyph unicode="&#xe08c;" d="M0 1229q0 200 62 388t175.5 339t264.5 264.5t339 175.5t388 62t388 -62t339 -175.5t264.5 -264.5t175.5 -339t62 -388t-62 -388t-175.5 -339t-264.5 -264.5t-339 -175.5t-388 -62t-388 62t-339 175.5t-264.5 264.5t-175.5 339t-62 388zM205 1229q0 -209 81 -398.5 t218 -326.5t326.5 -218t398.5 -81t398.5 81t326.5 218t218 326.5t81 398.5t-81 398.5t-218 326.5t-326.5 218t-398.5 81t-398.5 -81t-326.5 -218t-218 -326.5t-81 -398.5zM819 1229q0 93 35 171.5t93 129.5t131.5 79.5t150.5 28.5q38 0 75 -5.5t67.5 -12t68 -23.5t63 -28.5 t66.5 -39.5t65 -44.5t71 -55t72 -59t82 -68.5t87 -73q-31 -26 -87 -73t-81.5 -68.5t-72.5 -59t-71.5 -55t-64.5 -45t-66 -39.5t-63 -29t-68 -23.5t-68 -12t-75 -5.5q-104 0 -196.5 48t-153 143.5t-60.5 218.5zM1075 1229q0 -63 45.5 -108.5t108.5 -45.5t108 45.5t45 108.5 t-45 108t-108 45t-108.5 -45t-45.5 -108z" />
<glyph unicode="&#xe08d;" d="M0 1229q0 200 62 388t175.5 339t264.5 264.5t339 175.5t388 62t388 -62t339 -175.5t264.5 -264.5t175.5 -339t62 -388t-62 -388t-175.5 -339t-264.5 -264.5t-339 -175.5t-388 -62t-388 62t-339 175.5t-264.5 264.5t-175.5 339t-62 388zM205 1229q0 -208 81 -397.5 t218.5 -327t327 -218.5t397.5 -81t397.5 81t327 218.5t218.5 327t81 397.5t-81 397.5t-218.5 327t-327 218.5t-397.5 81t-397.5 -81t-327 -218.5t-218.5 -327t-81 -397.5zM819 1229q0 38 5.5 75t12 68t23.5 68t29 63t39.5 66t45 64.5t55 71.5t59 72.5t68.5 81.5t73 87 q25 -30 73 -87t68.5 -82t59 -72t55 -71t44.5 -65t39.5 -66.5t28.5 -63t23.5 -68t12 -67.5t5.5 -75q0 -77 -28.5 -150.5t-79.5 -131.5t-129.5 -93t-171.5 -35q-123 0 -218.5 60.5t-143.5 153t-48 196.5zM1075 1229q0 -63 45.5 -108.5t108.5 -45.5t108 45.5t45 108.5t-45 108 t-108 45t-108.5 -45t-45.5 -108z" />
<glyph unicode="&#xe08e;" d="M-1 1225.5q0 232.5 92 462t269 406.5t406.5 269t462.5 92t462.5 -92t406.5 -269t269 -406.5t92 -462t-92 -462t-269 -406.5t-406.5 -269t-462.5 -92t-462.5 92t-406.5 269t-269 406.5t-92 462zM204 1225.5q0 -193.5 77 -385t224 -338.5t338.5 -224t385.5 -77t385.5 77 t338.5 224t224 338.5t77 385t-77 385t-224 338.5t-338.5 224t-385.5 77t-385.5 -77t-338.5 -224t-224 -338.5t-77 -385zM827 1133q-25 110 6.5 209t105.5 173q27 27 56.5 49t56.5 39.5t65 31.5t65 24t75 19t77 14t88.5 11.5t93 9.5t106.5 9t113 10q-4 -40 -10 -113 t-9 -106.5t-9.5 -93t-11.5 -88.5t-14 -77t-19 -75t-24 -65t-31.5 -65t-39.5 -56.5t-49 -56.5q-74 -74 -173 -105.5t-209 -6.5t-197 112t-112 197zM1076 1225.5q0 -64.5 44 -108.5t108.5 -44t108.5 44t44 108.5t-44 108.5t-108.5 44t-108.5 -44t-44 -108.5z" />
<glyph unicode="&#xe08f;" d="M2 1229q0 233 92 462.5t269 406.5t406.5 269t462.5 92t462.5 -92t406.5 -269t269 -406.5t92 -462.5t-92 -462.5t-269 -406.5t-406.5 -269t-462.5 -92t-462.5 92t-406.5 269t-269 406.5t-92 462.5zM207 1229q0 -194 77 -385.5t224 -338.5t338.5 -224t385.5 -77t385.5 77 t338.5 224t224 338.5t77 385.5t-77 385.5t-224 338.5t-338.5 224t-385.5 77t-385.5 -77t-338.5 -224t-224 -338.5t-77 -385.5zM725 1735q39 -4 124.5 -11t117.5 -10t99.5 -10.5t96.5 -14t81 -18t81 -25t67.5 -32t69 -42.5t60.5 -54q74 -74 105.5 -173t6.5 -209t-112 -197 t-197.5 -112t-209.5 6.5t-173 105.5q-27 27 -49 56.5t-39.5 56.5t-31.5 65t-24 65t-19 75t-14 77t-11.5 88.5t-9.5 93t-9 106.5t-10 113zM1080 1228.5q0 -64.5 44 -108.5t108.5 -44t108.5 44t44 108.5t-44 108.5t-108.5 44t-108.5 -44t-44 -108.5z" />
<glyph unicode="&#xe090;" d="M0 1229q0 200 62 388t175.5 339t264.5 264.5t339 175.5t388 62t388 -62t339 -175.5t264.5 -264.5t175.5 -339t62 -388t-62 -388t-175.5 -339t-264.5 -264.5t-339 -175.5t-388 -62t-388 62t-339 175.5t-264.5 264.5t-175.5 339t-62 388zM205 1229q0 -208 81 -397.5 t218.5 -327t327 -218.5t397.5 -81t397.5 81t327 218.5t218.5 327t81 397.5t-81 397.5t-218.5 327t-327 218.5t-397.5 81t-397.5 -81t-327 -218.5t-218.5 -327t-81 -397.5zM819 1229q0 104 48 196.5t143.5 152.5t218.5 60q93 0 171.5 -35t129.5 -92.5t79.5 -131t28.5 -150.5 q0 -38 -5.5 -75t-12 -67.5t-23.5 -68t-28.5 -63t-39.5 -66.5t-44.5 -65t-55 -71t-59 -72t-68.5 -82t-73 -87q-26 31 -73 87t-68.5 81.5t-59 72.5t-55 71.5t-45 64.5t-39.5 66t-29 63t-23.5 68t-12 68t-5.5 75zM1075 1229q0 -63 45.5 -108.5t108.5 -45.5t108 45.5t45 108.5 t-45 108t-108 45t-108.5 -45t-45.5 -108z" />
<glyph unicode="&#xe091;" d="M-4 1229q0 233 92 462.5t269 406.5t406.5 269t462 92t462 -92t406.5 -269t269 -406.5t92 -462.5t-92 -462.5t-269 -406.5t-406.5 -269t-462 -92t-462 92t-406.5 269t-269 406.5t-92 462.5zM201 1229q0 -194 77 -385.5t224 -338.5t338.5 -224t385 -77t385 77t338.5 224 t224 338.5t77 385.5t-77 385.5t-224 338.5t-338.5 224t-385 77t-385 -77t-338.5 -224t-224 -338.5t-77 -385.5zM824 1321q25 110 112 197t197 112t209 -6.5t173 -105.5q27 -27 49 -56.5t39.5 -56.5t31.5 -65t24 -65t19 -75t14 -77t11.5 -88.5t9.5 -93t9 -106.5t10 -113 q-40 4 -113 10t-106.5 9t-93 9.5t-88.5 11.5t-77 14t-75 19t-65 24t-65 31.5t-56.5 39.5t-56.5 49q-74 74 -105.5 173t-6.5 209zM1073 1228.5q0 -64.5 44 -108.5t108.5 -44t108.5 44t44 108.5t-44 108.5t-108.5 44t-108.5 -44t-44 -108.5z" />
<glyph unicode="&#xe092;" d="M-1 1232q0 233 92 462.5t269 406.5t406.5 269t462.5 92t462.5 -92t406.5 -269t269 -406.5t92 -462.5t-92 -462.5t-269 -406.5t-406.5 -269t-462.5 -92t-462.5 92t-406.5 269t-269 406.5t-92 462.5zM204 1232q0 -194 77 -385.5t224 -338.5t338.5 -224t385.5 -77t385.5 77 t338.5 224t224 338.5t77 385.5t-77 385.5t-224 338.5t-338.5 224t-385.5 77t-385.5 -77t-338.5 -224t-224 -338.5t-77 -385.5zM722 725q4 39 11 124.5t10 117.5t10.5 99.5t14 96.5t18 81t25 81t32 67.5t42.5 69t54 60.5q74 74 173 105.5t209 6.5t197 -112t112 -197.5 t-6.5 -209.5t-105.5 -173q-27 -27 -56.5 -49t-56.5 -39.5t-65 -31.5t-65 -24t-75 -19t-77 -14t-88.5 -11.5t-93 -9.5t-106.5 -9t-113 -10zM1076 1232.5q0 -64.5 44 -108.5t108.5 -44t108.5 44t44 108.5t-44 108.5t-108.5 44t-108.5 -44t-44 -108.5z" />
<glyph unicode="&#xe093;" d="M0 1229q0 200 62 388t175.5 339t264.5 264.5t339 175.5t388 62t388 -62t339 -175.5t264.5 -264.5t175.5 -339t62 -388t-62 -388t-175.5 -339t-264.5 -264.5t-339 -175.5t-388 -62t-388 62t-339 175.5t-264.5 264.5t-175.5 339t-62 388zM205 1229q0 -208 81 -397.5 t218.5 -327t327 -218.5t397.5 -81t397.5 81t327 218.5t218.5 327t81 397.5t-81 397.5t-218.5 327t-327 218.5t-397.5 81t-397.5 -81t-327 -218.5t-218.5 -327t-81 -397.5zM512 1229q30 25 87 73t82 68.5t72 59t71 55t65 44.5t66.5 39.5t63 28.5t68 23.5t67.5 12t75 5.5 q77 0 150.5 -28.5t131 -79.5t92.5 -129.5t35 -171.5q0 -123 -60 -218.5t-152.5 -143.5t-196.5 -48q-38 0 -75 5.5t-68 12t-68 23.5t-63 29t-66 39.5t-64.5 45t-71.5 55t-72.5 59t-81.5 68.5t-87 73zM1075 1229q0 -63 45.5 -108.5t108.5 -45.5t108 45.5t45 108.5t-45 108 t-108 45t-108.5 -45t-45.5 -108z" />
<glyph unicode="&#xe094;" d="M0 1229q0 250 97.5 477.5t262 392t392 262t477.5 97.5t477.5 -97.5t392 -262t262 -392t97.5 -477.5t-97.5 -477.5t-262 -392t-392 -262t-477.5 -97.5t-477.5 97.5t-392 262t-262 392t-97.5 477.5zM1229 307q187 0 358 73t294 196.5t196 294t73 358.5t-73 358.5 t-196 293.5t-293.5 196t-358.5 73v-1843z" />
<glyph unicode="&#xe095;" d="M205 1229l1229 1229v-1024l1024 1024v-2458l-1024 1024v-1024z" />
<glyph unicode="&#xe096;" d="M0 263.5v43.5v410v43.5t4.5 28t7.5 18.5t18.5 7.5t28 4.5h43.5h2253h43.5t28 -4.5t19 -8t8 -18.5t4.5 -27.5v-43.5v-410v-43.5t-4.5 -27.5t-8 -18.5t-19 -8t-28 -4.5h-43.5h-2253h-43.5t-28 4.5t-18.5 7.5t-7.5 18.5t-4.5 28zM102 1024l1127 1229l1126 -1229h-2253z" />
<glyph unicode="&#xe097;" d="M0 58.5v43.5v2253v43.5t4.5 28t8 19t18.5 8t27.5 4.5h43.5h205q77 0 90 -13t13 -90v-921l1024 1024v-1024l1024 1024v-2458l-1024 1024v-1024l-1024 1024v-922v-43.5t-4.5 -27.5t-8 -18.5t-19 -8t-28 -4.5h-43.5h-205h-43.5t-28 4.5t-18.5 7.5t-7.5 18.5t-4.5 28z" />
<glyph unicode="&#xe098;" d="M0 0v2458l1024 -1024v1024l1024 -1024v921v43.5t4.5 28t8 19t18.5 8t27.5 4.5h43.5h205q77 0 90 -13t13 -90v-2253v-43.5t-4.5 -27.5t-8 -18.5t-19 -8t-28 -4.5h-43.5h-205h-43.5t-28 4.5t-18.5 7.5t-7.5 18.5t-4.5 28v43.5v922l-1024 -1024v1024z" />
<glyph unicode="&#xe099;" d="M0 0v2458l1024 -1024v1024l1229 -1229l-1229 -1229v1024z" />
<glyph unicode="&#xe09a;" d="M205 307v1843v43.5t4.5 28t8 19t18.5 8t27.5 4.5h43.5h615h43.5t27.5 -4.5t18.5 -8t8 -19t4.5 -28v-43.5v-1843v-43.5t-4.5 -28t-7.5 -18.5t-18.5 -7.5t-28 -4.5h-43.5h-615q-77 0 -89.5 12.5t-12.5 89.5zM1434 263.5v43.5v1843v43.5t4.5 28t8 19t18.5 8t27.5 4.5h43.5 h614h44t28 -4.5t18.5 -8t8 -18.5t4.5 -28v-44v-1843v-43.5t-4.5 -27.5t-8 -18.5t-19 -8t-28 -4.5h-43.5h-614h-43.5t-28 4.5t-18.5 7.5t-7.5 18.5t-4.5 28z" />
<glyph unicode="&#xe09b;" d="M410 0v2253l1843 -1127z" />
<glyph unicode="&#xe09c;" d="M205 307v1843v43.5t4.5 28t8 19t18.5 8t27.5 4.5h43.5h1843h44t28 -4.5t18.5 -8t8 -18.5t4.5 -28v-44v-1843v-43.5t-4.5 -27.5t-8 -18.5t-19 -8t-28 -4.5h-43.5h-1843q-77 0 -89.5 12.5t-12.5 89.5z" />
<glyph unicode="&#xe09d;" d="M-614 0q0 13 0.5 36.5t6 91t15 129.5t30.5 140t50 135l573 308q81 40 111 88t33 106q-155 115 -241.5 327.5t-86.5 440.5q0 99 26 194t79.5 178.5t128 147t178.5 100t223 36.5q284 0 459.5 -182t175.5 -474q0 -167 -33 -314t-108 -273.5t-186 -197.5q11 -112 143 -177 l266 -143l266 143q100 51 129 122q-81 31 -153.5 76t-118.5 87t-80 80.5t-49 61.5l-15 23q4 5 11 15.5t25 53t31.5 95t24.5 146t11 202.5q0 99 26 194t79.5 178.5t128 147t178.5 100t223 36.5q289 0 461.5 -181t172.5 -475q0 -109 10.5 -202t26 -147.5t30.5 -93.5t25 -54 l11 -15q-5 -9 -15 -25.5t-46.5 -62t-80 -86t-116.5 -87t-154 -76.5q31 -66 125 -113l574 -308q45 -91 70.5 -224t28.5 -220l3 -88h-3686zM82 1802q0 -168 55.5 -318.5t155.5 -243.5t219 -93q144 0 242.5 86t143 230t44.5 339q0 70 -11 121q-88 -10 -174 -7.5t-164 20.5 t-166.5 73.5t-181.5 149.5q-77 -65 -120 -160t-43 -197zM205 1741q0 42 30 72t72 30q43 0 73 -29.5t30 -72.5t-31.5 -73t-71.5 -30q-41 0 -71.5 31t-30.5 72zM614 1741q0 46 28.5 74t74.5 28t74 -28t28 -74t-28 -74.5t-74 -28.5t-74.5 28.5t-28.5 74.5zM1516 1802 q0 -168 55.5 -318.5t155.5 -243.5t219 -93q144 0 242.5 86t143 230t44.5 339q0 66 -12 121q-88 -10 -173.5 -7.5t-163.5 20.5t-166.5 73.5t-181.5 149.5q-77 -65 -120 -160t-43 -197zM1577 1743q40 65 95 89t103 2t68 -83q0 -47 -28.5 -79t-73.5 -32q-41 0 -74.5 23.5 t-89.5 79.5zM2048 1751q20 61 68 83t103 -2t95 -89q-39 -39 -58 -56t-48 -32t-58 -15q-45 0 -73.5 32t-28.5 79z" />
<glyph unicode="&#xe09e;" d="M0 358v871h2458v-871q0 -75 -39.5 -114t-114.5 -39h-2150q-75 0 -114.5 39t-39.5 114zM0 1638v256q0 75 39.5 114.5t114.5 39.5h2150q75 0 114.5 -39.5t39.5 -114.5v-256h-2458zM205 468.5q0 -12.5 4.5 -28t7.5 -18.5t18.5 -7.5t28 -4.5h43.5h410h43.5t28 4.5t18.5 7.5 t7.5 18.5t4.5 28v43.5v43.5t-4.5 28t-7.5 18.5t-18.5 7.5t-28 4.5h-43.5h-410h-43.5t-28 -4.5t-18.5 -7.5t-7.5 -18.5t-4.5 -28v-43.5v-43.5z" />
<glyph unicode="&#xe09f;" d="M333 396q0 9 27 36l796 797l-796 796q-27 27 -27 36t27 36t36 27t36 -27l797 -796l796 797q27 27 36 27t36 -27t27 -36.5t-27 -36.5l-796 -796l797 -797q27 -27 27 -36t-27 -36t-36.5 -27t-36.5 27l-796 796l-797 -796q-27 -27 -36 -27t-36 27t-27 36z" />
<glyph unicode="&#xe0a0;" d="M302 432.5q0 5.5 7.5 19t16.5 22.5l31 31l724 724l-721 720l-31 31t-16.5 22.5t-7.5 19t7.5 19t16.5 22.5l31 31l31 31t22.5 16.5t19 7.5t19 -7.5t22.5 -16.5l31 -31l721 -720l723 724l31 31t22.5 16.5t19 7.5t19 -7.5t22.5 -16.5l31 -31l31 -31t16.5 -22.5t7.5 -19 t-7.5 -19t-16.5 -22.5l-31 -31l-724 -724l728 -727l31 -31t16.5 -22.5t7.5 -19t-7.5 -19t-16.5 -22.5l-31 -31l-31 -31t-22.5 -16.5t-19 -7.5t-19 7.5t-22.5 16.5l-31 31l-727 727l-724 -724l-31 -31t-22.5 -16.5t-19 -7.5t-19 7.5t-22.5 16.5l-31 31l-31 31t-16.5 22.5 t-7.5 19z" />
<glyph unicode="&#xe0a1;" d="M285.5 494q9.5 21 35.5 47l687 688l-684 684q-26 26 -35.5 47t0.5 44.5t24 40t47 49.5q27 27 40 39t33.5 25t34.5 12.5t33 -9.5t40 -30l685 -685l687 688q26 26 47 35.5t44.5 -0.5t40 -24t49.5 -47q27 -27 39 -40t25 -33.5t12.5 -34.5t-9.5 -33t-30 -40l-688 -688 l691 -691q26 -26 35.5 -47t-0.5 -44.5t-24 -40t-47 -49.5t-49.5 -47t-40 -24t-44.5 -0.5t-47 35.5l-691 691l-688 -688q-26 -26 -47 -35.5t-44.5 0.5t-40 24t-49.5 47t-47 49.5t-24 40t-0.5 44.5z" />
<glyph unicode="&#xe0a2;" d="M257 491.5q-4 18.5 1 41.5t26 44l652 652l-648 648q-21 21 -26.5 44t-1 42t23.5 45t33.5 42t42.5 44q29 29 44 43t42 33.5t45.5 23.5t41.5 -1t44 -26l649 -649l651 652q21 21 44 26.5t42 1t45 -23.5t42 -33.5t44 -42.5t43 -44t34 -42.5t23 -45t-1 -42t-26 -44.5 l-652 -651l655 -655q21 -21 26.5 -44t1 -42t-23.5 -45t-33.5 -42t-42.5 -44t-44 -43t-42.5 -34t-45 -23t-42 1t-44.5 26l-654 655l-652 -651q-21 -21 -44 -26.5t-42 -1t-45 23.5t-42 33.5t-44 42.5q-29 29 -43 44t-33.5 42t-23.5 45.5z" />
<glyph unicode="&#xe0a3;" d="M195 605.5q3 23.5 20 40.5l579 580l-579 579q-17 17 -20 40.5t10 51.5t27.5 51.5t42.5 55t43.5 48t41.5 42.5q25 25 42 41t48.5 43.5t55.5 42.5t52 28t51.5 10t40.5 -20l579 -579l579 579q17 17 40.5 20t51.5 -10t52 -28t55.5 -42.5t48.5 -43.5t42 -41t41 -42t43.5 -48 t42 -55t27.5 -52t10 -51.5t-20 -40.5l-579 -579l579 -580q17 -17 20 -40.5t-10 -51.5t-27.5 -52t-42 -55t-43.5 -48t-41 -42t-42 -41t-48.5 -43.5t-55.5 -42.5t-52 -28t-51.5 -10t-40.5 20l-579 579l-579 -579q-17 -17 -40.5 -20t-51.5 10t-52 28t-55.5 42.5t-48.5 43.5 t-42 41q-26 26 -41.5 42.5t-43.5 48t-42.5 55t-27.5 51.5t-10 51.5z" />
<glyph unicode="&#xe0a4;" d="M0 1075v307h320q49 290 257.5 498.5t497.5 257.5v320h307v-320q289 -49 498 -258t258 -498h320v-307h-320q-49 -289 -257.5 -497.5t-498.5 -257.5v-320h-307v320q-289 49 -497.5 257.5t-257.5 497.5h-320zM634 1075q42 -162 160.5 -280.5t280.5 -160.5v288h307v-288 q162 42 281 160.5t161 280.5h-288v307h288q-42 162 -161 281t-281 161v-288h-307v288q-162 -42 -280.5 -161t-160.5 -281h288v-307h-288z" />
<glyph unicode="&#xe0a5;" d="M0 58.5v43.5v2048v43.5t4.5 28t8 19t18.5 8t27.5 4.5h43.5h922h43.5t27.5 -4.5t18.5 -8t8 -19t4.5 -28v-43.5v-870h-307v256l-512 -410l512 -409v256h307v-871v-43.5t-4.5 -28t-7.5 -18.5t-18.5 -7.5t-28 -4.5h-43.5h-922h-43.5t-28 4.5t-18.5 7.5t-7.5 18.5t-4.5 28z M1331 58.5v43.5v871h307v-256l512 409l-512 410v-256h-307v870v44t4.5 28t8 18.5t18.5 8t28 4.5h44h921q77 0 90 -13.5t13 -89.5v-2048v-43.5t-4.5 -27.5t-8 -18.5t-19 -8t-28 -4.5h-43.5h-921h-43.5t-28 4.5t-19 8t-8 18.5t-4.5 27.5z" />
<glyph unicode="&#xe0a6;" d="M392 753h477q0 -36 13 -76t42 -80.5t70 -72.5t102 -52t132 -20q163 0 260.5 78.5t97.5 220.5q0 36 -8.5 67t-28 56t-39.5 45t-54 37.5t-60.5 30t-70 26t-71 21.5t-75 20.5t-71.5 19.5q-60 17 -101.5 30t-102 35t-104 43.5t-96.5 54t-90 67.5t-74.5 82.5t-60 101t-37 122 t-14.5 145.5q0 255 149 429t412 239v120v51t5 32t9 21.5t21.5 9t32 5.5h51.5h239h40t29 -2.5t22 -3.5t13.5 -9.5t9.5 -13.5t3.5 -22t2.5 -28.5v-39.5v-120q84 -10 170.5 -49.5t164 -106.5t136.5 -151t89.5 -191t22.5 -219h-478q-8 125 -95 212.5t-239 87.5q-141 0 -237 -73 t-96 -174q0 -41 17.5 -77t42 -63t67.5 -52t78 -41t90 -34t86.5 -26.5t84.5 -21.5q210 -52 341 -123q352 -191 352 -563q0 -132 -50 -256.5t-133 -218t-190.5 -159.5t-223.5 -90v-120v-39.5t-2.5 -28.5t-3.5 -22t-9.5 -13.5t-13.5 -9.5t-22 -3.5t-29 -2.5h-40h-239h-51.5 t-32 5.5t-21.5 9t-9 21.5t-5 32v51v120q-93 18 -177 54.5t-161.5 97.5t-134.5 140t-90.5 189t-33.5 238z" />
<glyph unicode="&#xe0a7;" d="M410 0v410q288 209 327 409h-225h-43.5t-27.5 4.5t-18.5 8t-8 19t-4.5 28v43.5v204v43.5t4.5 28t8 19t18.5 8t27.5 4.5h43.5h129q-43 93 -64 143.5t-43 138.5t-22 168q0 148 45 275.5t124 219t184.5 156.5t227.5 96.5t252 31.5q125 0 242 -32t219.5 -99t179 -162.5 t120.5 -231t44 -295.5h-409q0 207 -144 323q-117 94 -279 93q-160 0 -271 -93q-125 -104 -125 -282q0 -49 8.5 -96t27 -95.5t34 -83.5t42.5 -90.5t40 -84.5h564h44t28 -4.5t18.5 -8t8 -18.5t4.5 -28v-44v-204v-44t-4.5 -28t-8 -18.5t-18.5 -8t-28 -4.5h-44h-503 q-37 -185 -201 -409h1114h43.5t27.5 -4.5t18.5 -8t8 -19t4.5 -28v-43.5v-205v-43.5t-4.5 -28t-7.5 -18.5t-18.5 -7.5t-28 -4.5h-43.5h-1638z" />
<glyph unicode="&#xe0a8;" d="M573 76.5q-12 76.5 0 153.5t41 77q471 0 471 430v82h-286q-29 0 -41 71.5t0 143.5t41 72h286v614q0 102 -24 178t-64.5 123.5t-102 77t-128.5 40.5t-152 11q-29 0 -41 77t0 154t41 77q207 0 362.5 -65.5t252.5 -185.5q97 120 252 185.5t362 65.5q29 0 41 -77t0 -154 t-41 -77q-85 0 -152 -11t-128.5 -40.5t-102 -77t-64.5 -123.5t-24 -178v-614h287q29 0 41 -72t0 -143.5t-41 -71.5h-287v-82q0 -430 471 -430q29 0 41 -76.5t0 -153.5t-41 -77q-207 0 -362.5 65t-251.5 185q-96 -120 -252 -185t-363 -65q-29 0 -41 76.5z" />
<glyph unicode="&#xe0a9;" d="M-205 1126v1024l717 -716h-410zM0 51q0 38 6.5 44.5t44.5 6.5t44.5 -6.5t6.5 -44.5t-6.5 -44.5t-44.5 -6.5t-44.5 6.5t-6.5 44.5zM0 256q0 38 6.5 44.5t44.5 6.5t44.5 -6.5t6.5 -44.5t-6.5 -44.5t-44.5 -6.5t-44.5 6.5t-6.5 44.5zM0 461q0 38 6.5 44.5t44.5 6.5 t44.5 -6.5t6.5 -44.5t-6.5 -44.5t-44.5 -6.5t-44.5 6.5t-6.5 44.5zM0 666q0 38 6.5 44.5t44.5 6.5t44.5 -6.5t6.5 -44.5t-6.5 -45t-44.5 -7t-44.5 7t-6.5 45zM0 870q0 38 6.5 45t44.5 7t44.5 -7t6.5 -45t-6.5 -44.5t-44.5 -6.5t-44.5 6.5t-6.5 44.5zM0 1075q0 38 6.5 44.5 t44.5 6.5t44.5 -6.5t6.5 -44.5t-6.5 -44.5t-44.5 -6.5t-44.5 6.5t-6.5 44.5zM0 2099q0 38 6.5 44.5t44.5 6.5t44.5 -6.5t6.5 -44.5t-6.5 -44.5t-44.5 -6.5t-44.5 6.5t-6.5 44.5zM205 51q0 38 6.5 44.5t44.5 6.5t44.5 -6.5t6.5 -44.5t-6.5 -44.5t-44.5 -6.5t-44.5 6.5 t-6.5 44.5zM205 2099q0 38 6.5 44.5t44.5 6.5t44.5 -6.5t6.5 -44.5t-6.5 -44.5t-44.5 -6.5t-44.5 6.5t-6.5 44.5zM410 51q0 38 6.5 44.5t44.5 6.5t44.5 -6.5t6.5 -44.5t-6.5 -44.5t-44.5 -6.5t-44.5 6.5t-6.5 44.5zM410 2099q0 38 6.5 44.5t44.5 6.5t44.5 -6.5t6.5 -44.5 t-6.5 -44.5t-44.5 -6.5t-44.5 6.5t-6.5 44.5zM614 51q0 38 7 44.5t45 6.5t44.5 -6.5t6.5 -44.5t-6.5 -44.5t-44.5 -6.5t-45 6.5t-7 44.5zM614 2099q0 38 7 44.5t45 6.5t44.5 -6.5t6.5 -44.5t-6.5 -44.5t-44.5 -6.5t-45 6.5t-7 44.5zM819 51q0 38 6.5 44.5t44.5 6.5t45 -6.5 t7 -44.5t-7 -44.5t-45 -6.5t-44.5 6.5t-6.5 44.5zM819 2099q0 38 6.5 44.5t44.5 6.5t45 -6.5t7 -44.5t-7 -44.5t-45 -6.5t-44.5 6.5t-6.5 44.5zM922 205v102q56 0 106 17.5t92.5 53t71 96.5t35.5 140h-203v103h205v665q0 92 -26 163.5t-70 113t-97.5 62t-113.5 20.5v102 q124 0 216.5 -60.5t142.5 -165.5q52 105 144.5 165.5t212.5 60.5v-102q-60 0 -113.5 -20.5t-97.5 -62t-70 -113t-26 -163.5v-665h205v-103h-203q7 -79 35.5 -140t71 -96.5t92.5 -53t106 -17.5v-102q-123 0 -215.5 59.5t-142.5 163.5q-50 -104 -142.5 -163.5t-215.5 -59.5z M1024 51q0 38 6.5 44.5t44.5 6.5t44.5 -6.5t6.5 -44.5t-6.5 -44.5t-44.5 -6.5t-44.5 6.5t-6.5 44.5zM1024 2099q0 38 6.5 44.5t44.5 6.5t44.5 -6.5t6.5 -44.5t-6.5 -44.5t-44.5 -6.5t-44.5 6.5t-6.5 44.5zM1229 51q0 38 6.5 44.5t44.5 6.5t44.5 -6.5t6.5 -44.5t-6.5 -44.5 t-44.5 -6.5t-44.5 6.5t-6.5 44.5zM1229 2099q0 38 6.5 44.5t44.5 6.5t44.5 -6.5t6.5 -44.5t-6.5 -44.5t-44.5 -6.5t-44.5 6.5t-6.5 44.5zM1434 51q0 38 6.5 44.5t44.5 6.5t44.5 -6.5t6.5 -44.5t-6.5 -44.5t-44.5 -6.5t-44.5 6.5t-6.5 44.5zM1434 2099q0 38 6.5 44.5 t44.5 6.5t44.5 -6.5t6.5 -44.5t-6.5 -44.5t-44.5 -6.5t-44.5 6.5t-6.5 44.5zM1638 51q0 38 7 44.5t45 6.5t44.5 -6.5t6.5 -44.5t-6.5 -44.5t-44.5 -6.5t-45 6.5t-7 44.5zM1638 2099q0 38 7 44.5t45 6.5t44.5 -6.5t6.5 -44.5t-6.5 -44.5t-44.5 -6.5t-45 6.5t-7 44.5zM1843 51 q0 38 6.5 44.5t44.5 6.5t45 -6.5t7 -44.5t-7 -44.5t-45 -6.5t-44.5 6.5t-6.5 44.5zM1843 2099q0 38 6.5 44.5t44.5 6.5t45 -6.5t7 -44.5t-7 -44.5t-45 -6.5t-44.5 6.5t-6.5 44.5zM2048 51q0 38 6.5 44.5t44.5 6.5t44.5 -6.5t6.5 -44.5t-6.5 -44.5t-44.5 -6.5t-44.5 6.5 t-6.5 44.5zM2048 256q0 38 6.5 44.5t44.5 6.5t44.5 -6.5t6.5 -44.5t-6.5 -44.5t-44.5 -6.5t-44.5 6.5t-6.5 44.5zM2048 461q0 38 6.5 44.5t44.5 6.5t44.5 -6.5t6.5 -44.5t-6.5 -44.5t-44.5 -6.5t-44.5 6.5t-6.5 44.5zM2048 666q0 38 6.5 44.5t44.5 6.5t44.5 -6.5t6.5 -44.5 t-6.5 -45t-44.5 -7t-44.5 7t-6.5 45zM2048 870q0 38 6.5 45t44.5 7t44.5 -7t6.5 -45t-6.5 -44.5t-44.5 -6.5t-44.5 6.5t-6.5 44.5zM2048 1075q0 38 6.5 44.5t44.5 6.5t44.5 -6.5t6.5 -44.5t-6.5 -44.5t-44.5 -6.5t-44.5 6.5t-6.5 44.5zM2048 1280q0 38 6.5 44.5t44.5 6.5 t44.5 -6.5t6.5 -44.5t-6.5 -44.5t-44.5 -6.5t-44.5 6.5t-6.5 44.5zM2048 1485q0 38 6.5 44.5t44.5 6.5t44.5 -6.5t6.5 -44.5t-6.5 -44.5t-44.5 -6.5t-44.5 6.5t-6.5 44.5zM2048 1690q0 38 6.5 44.5t44.5 6.5t44.5 -6.5t6.5 -44.5t-6.5 -45t-44.5 -7t-44.5 7t-6.5 45z M2048 1894q0 38 6.5 45t44.5 7t44.5 -7t6.5 -45t-6.5 -44.5t-44.5 -6.5t-44.5 6.5t-6.5 44.5zM2048 2099q0 38 6.5 44.5t44.5 6.5t44.5 -6.5t6.5 -44.5t-6.5 -44.5t-44.5 -6.5t-44.5 6.5t-6.5 44.5z" />
<glyph unicode="&#xe0aa;" d="M799 492h327v122q0 137 55 267.5t149 229.5t228.5 159.5t284.5 60.5h123v328l492 -430l-492 -430v327h-123q-160 0 -277.5 -68.5t-176 -183.5t-58.5 -260v-122h328l-430 -492z" />
<glyph unicode="&#xe0ab;" d="M461 1843v512q0 77 6.5 90t44.5 13t44.5 -13t6.5 -90v-614q0 -24 25.5 -34t51.5 0t26 34v614q0 77 6.5 90t44.5 13t44.5 -13t6.5 -90v-614q0 -24 25.5 -34t51 0t25.5 34v614q0 36 1 50.5t2.5 29t8.5 17.5t14.5 4.5t25.5 1.5q38 0 44.5 -13t6.5 -90v-614q0 -24 25.5 -34 t51 0t25.5 34v614q0 77 6.5 90t44.5 13q18 0 25.5 -1.5t14.5 -4.5t8.5 -17.5t2.5 -29t1 -50.5v-512q0 -120 -15 -210t-38 -139t-49.5 -98.5t-49.5 -90.5t-38 -113.5t-15 -167.5v-922v-43.5t-4.5 -27.5t-8 -18.5t-19 -8t-28 -4.5h-43.5h-102h-43.5t-28 4.5t-18.5 7.5 t-7.5 18.5t-4.5 28v43.5v922q0 95 -15 167.5t-38 113.5t-49.5 90.5t-49.5 98.5t-38 139t-15 210zM1434 58.5v43.5v2253v43.5t4.5 28t8 19t18.5 8t27.5 4.5h43.5q78 0 151 -48t131 -136.5t93 -227t35 -305.5v-717h-205v-922v-43.5t-4.5 -27.5t-8 -18.5t-19 -8t-28 -4.5h-43.5 h-102h-43.5t-28 4.5t-18.5 7.5t-7.5 18.5t-4.5 28z" />
</font>
</defs>
</svg>
